<?xml version="1.0" standalone="no"?>
<!DOCTYPE svg PUBLIC "-//W3C//DTD SVG 1.1//EN" "http://www.w3.org/Graphics/SVG/1.1/DTD/svg11.dtd">
<svg xmlns="http://www.w3.org/2000/svg">
<defs >
<font id="Sanchez" horiz-adv-x="588" ><font-face
    font-family="Sanchez"
    units-per-em="1000"
    panose-1="0 0 0 0 0 0 0 0 0 0"
    ascent="1004"
    descent="-274"
    alphabetic="0" />
<glyph unicode=" " glyph-name="space" horiz-adv-x="313" />
<glyph unicode="!" glyph-name="exclam" horiz-adv-x="182" d="M142 148H82Q70 148 71 160L154 748Q156 760 168 760H228Q240 760 238 748L155 160Q154 148 142 148ZM119 57T132 44T146 8T127 -31T86 -49T51 -36T38 0T56 39T97 57Z" />
<glyph unicode="&quot;" glyph-name="quotedbl" horiz-adv-x="278" d="M169 561H135Q122 561 124 574L142 737Q144 750 157 750H201Q214 750 212 737L184 574Q182 561 169 561ZM300 561H267Q253 561 255 574L274 737Q276 750 289 750H332Q344 750 344 741Q344
739 343 737L316 574Q313 561 300 561Z" />
<glyph unicode="#" glyph-name="numbersign" horiz-adv-x="612" d="M523 112H425L379 5Q374 -7 362 -7H313Q300 -7 306 5L351 112H221L175 5Q170 -7 157 -7H108Q96 -7 101 5L147 112H66Q54 112 56 124L61 161Q62 173 75 173H172L227 299H147Q134 299 136 312L142
348Q144 361 156 361H254L301 470Q306 483 318 483H368Q380 483 375 470L327 361H458L505 470Q512 483 523 483H572Q584 483 579 470L532 361H612Q625 361 623 348L618 312Q616 299 603 299H505L450 173H531Q544 173 542 161L537 124Q536 112 523 112ZM377 173L431
299H301L246 173H377Z" />
<glyph unicode="$" glyph-name="dollar" horiz-adv-x="646" d="M349 -86H295Q284 -86 285 -74L295 1Q230 10 191 41T135 110H133L125 43Q125 31 111 31H55Q42 31 44 43L71 231Q72 243 85 243H148Q161 243 158 225Q158 200 175 171T213 122T269 88T350 74Q434 74
483 109T533 207Q533 249 492 275T392 316T274 349T174 406T132 507Q132 596 201 658T384 724L394 793Q396 805 408 805H462Q474 805 473 793L462 714Q546 702 582 645L586 684Q588 696 601 696H657Q668 696 667 684L642 503Q640 491 628 491H565Q554 491 554 503L556
516Q558 547 526 589Q510 611 475 626T393 642Q322 642 276 607T229 518Q229 485 251 461T310 423T389 398T476 372T556 340T614 291T637 216Q637 126 570 62T373 -6L363 -74Q362 -86 349 -86Z" />
<glyph unicode="%" glyph-name="percent" horiz-adv-x="753" d="M233 359Q175 359 143 399T111 509Q111 602 159 663T284 724Q342 724 374 684T406 576Q406 482 359 421T233 359ZM241 414Q289 414 317 457T346 573Q346 669 277 669Q228 669 200 627T171 525Q171
414 241 414ZM570 -7Q512 -7 480 33T448 143Q448 236 496 297T621 358Q678 358 710 318T743 210Q743 117 696 55T570 -7ZM577 48Q625 48 653 91T682 207Q682 303 613 303Q564 303 536 261T507 159Q507 48 577 48ZM265 -74H205Q197 -74 197 -68Q197 -65 198 -62L554
748Q560 760 573 760H632Q640 760 640 756T638 748L282 -62Q278 -74 265 -74Z" />
<glyph unicode="&amp;" glyph-name="ampersand" horiz-adv-x="674" d="M603 0H522Q499 0 479 37L462 67Q381 -7 275 -7T116 46T63 173Q63 215 77 250T112 309T163 353Q204 381 265 406Q216 474 216 549T272 674T408 724Q469 724 511 690T553 590Q553 506 492 455Q442
413 372 381L479 192Q512 242 526 342Q528 354 540 354H672Q684 354 683 342L678 305Q675 293 664 293H590Q572 200 518 125L550 69H613Q626 69 624 57L617 12Q616 0 603 0ZM153 181Q153 128 190 97T283 66Q370 66 428 126L301 347Q197 303 168 246Q153 217 153
181ZM454 500T465 523T476 577T457 630T397 652T327 623T297 547T340 435Q373 449 390 457T431 483Z" />
<glyph unicode="&apos;" glyph-name="quotesingle" horiz-adv-x="147" d="M169 561H135Q122 561 124 574L142 737Q144 750 157 750H201Q214 750 212 737L184 574Q182 561 169 561Z" />
<glyph unicode="(" glyph-name="parenleft" horiz-adv-x="412" d="M351 -66Q241 -66 161 23T81 278Q81 397 117 494T212 648Q331 765 468 765Q481 765 479 752L472 701Q470 688 457 688Q359 688 266 590Q222 543 194 463T165 285Q165 152 225 82T362 11Q376 11
373 -2L366 -53Q364 -66 351 -66Z" />
<glyph unicode=")" glyph-name="parenright" horiz-adv-x="412" d="M53 11Q151 11 243 104Q288 150 317 230T346 410Q346 542 286 614T149 687Q135 687 137 700L144 751Q146 764 160 764Q264 764 344 682Q383 642 406 575T429 406T393 207T298 52Q179 -67 42 -67Q29
-67 31 -53L38 -3Q40 11 53 11Z" />
<glyph unicode="*" glyph-name="asterisk" horiz-adv-x="413" d="M282 420H248Q233 420 237 433L264 546L184 457Q173 446 164 456L144 480Q134 492 147 500L247 569L131 557Q125 556 122 560T119 570L123 604Q124 610 129 614T140 617L251 603L170 675Q161 684
173 694L201 718Q213 728 220 718L278 629L280 742Q280 755 295 755H330Q344 755 341 742L314 628L395 718Q406 729 415 718L435 695Q444 684 431 675L332 602L448 618Q454 619 457 615T459 605L455 571Q453 557 439 557L330 568L407 500Q417 492 404 481L378 457Q365
446 358 457L300 544L298 433Q296 420 282 420Z" />
<glyph unicode="+" glyph-name="plus" horiz-adv-x="401" d="M244 96H187Q174 96 176 109L192 216H82Q68 216 70 229L78 280Q80 293 92 293H202L217 403Q218 415 232 415H289Q300 415 299 403L284 293H390Q402 293 402 284Q402 282 401 280L394 229Q392 216 379
216H274L258 109Q256 96 244 96Z" />
<glyph unicode="," glyph-name="comma" horiz-adv-x="159" d="M35 -73Q36 -67 48 -67T75 -52T91 -9L90 -2Q84 -7 70 -7T45 4T34 35T50 70T88 86Q134 86 134 27T107 -63T39 -95Q32 -95 32 -90L35 -73Z" />
<glyph unicode="-" glyph-name="hyphen" horiz-adv-x="414" d="M393 222H82Q69 222 71 235L78 286Q80 299 93 299H404Q418 299 416 286L409 235Q407 222 393 222Z" />
<glyph unicode="." glyph-name="period" horiz-adv-x="151" d="M105 87T117 75T129 44T113 9T76 -7T45 4T33 36T49 71T85 87Z" />
<glyph unicode="/" glyph-name="slash" horiz-adv-x="405" d="M97 -74H37Q29 -74 29 -68Q29 -65 30 -62L386 748Q390 760 405 760H464Q472 760 472 756T470 748L114 -62Q110 -74 97 -74Z" />
<glyph unicode="0" glyph-name="zero" horiz-adv-x="654" d="M326 -7Q210 -7 147 74T83 292Q83 478 179 601T429 724Q544 724 608 643T673 428Q673 240 579 117T326 -7ZM338 74Q442 74 511 170T580 423Q580 527 537 586T418 645Q314 645 245 548T175 296Q175 190
217 132T338 74Z" />
<glyph unicode="1" glyph-name="one" horiz-adv-x="508" d="M458 0H63Q50 0 52 12L59 63Q60 75 73 75H236L313 624L161 525Q150 519 145 528L122 569Q115 577 127 586L319 711Q330 718 338 718H401Q414 718 412 706L323 75H468Q480 75 479 63L472 12Q470 0 458 0Z" />
<glyph unicode="2" glyph-name="two" horiz-adv-x="602" d="M551 0H51Q38 0 40 12L45 43Q55 107 87 156T164 236T258 292T357 339T446 384Q534 436 534 520Q534 573 496 608T385 644T263 603T205 499Q204 487 191 487H126Q115 487 115 497Q115 574 184 646Q218
680 276 702T406 724Q511 724 569 670T627 535Q627 477 603 431T540 355T452 300T354 252T262 207T188 150T147 75H486L497 147Q498 159 511 159H574Q587 159 584 147L566 12Q564 0 551 0Z" />
<glyph unicode="3" glyph-name="three" horiz-adv-x="590" d="M460 378V377Q488 377 530 346Q552 331 566 299T581 226Q581 122 499 58T285 -7Q226 -7 194 4T144 26T114 46T91 66Q78 80 64 101L58 110Q54 114 54 118T61 127L109 167Q120 175 127 167Q128 166 140
150T158 129T180 110T210 91Q250 74 296 74Q384 74 438 116T492 228Q492 337 336 337H297Q284 337 286 350L292 395Q294 408 306 408H338Q391 408 446 434Q476 447 494 474T513 544T481 615T382 644T276 609T230 528Q228 516 215 516H155Q144 516 144 526Q144 609
213 666T391 724T552 673T605 552Q605 510 587 475T542 420Q487 378 460 378Z" />
<glyph unicode="4" glyph-name="four" horiz-adv-x="608" d="M557 0H269Q256 0 258 12L265 63Q266 75 280 75H394L415 225H82Q70 225 72 238L77 278Q80 292 96 310L461 695Q484 718 502 718H559Q572 718 570 706L512 295H591Q604 295 602 282L596 238Q594 225
581 225H502L481 75H568Q580 75 578 63L571 12Q570 0 557 0ZM425 295L469 608L171 295H425Z" />
<glyph unicode="5" glyph-name="five" horiz-adv-x="590" d="M285 -7Q231 -7 202 3T157 20T127 37T104 55T86 73T72 89Q58 108 58 110Q54 114 54 118T61 127L109 167Q120 175 127 167Q129 165 140 151T158 130T179 110T208 91Q250 74 296 74Q389 74 443 122T497
256Q497 319 456 356T341 394Q281 394 224 378T161 361T150 360T140 366T138 384L183 708Q184 720 198 720H598Q610 720 608 708L590 578Q588 566 576 566H513Q500 566 502 578L512 645H263L234 442L248 446Q307 462 369 462Q475 462 531 409T587 265Q587 143 503
68T285 -7Z" />
<glyph unicode="6" glyph-name="six" horiz-adv-x="613" d="M609 523H548Q538 523 538 546Q538 584 508 614T417 645Q331 645 273 584T190 411Q278 462 388 462T554 409T610 265Q610 148 527 71T313 -7Q203 -7 143 71T82 276T120 500T239 661T419 724T572 679T625
559Q625 523 609 523ZM171 272Q171 193 200 144Q241 74 326 74T465 126T519 257Q519 319 479 356T366 394Q268 394 176 339Q171 303 171 272Z" />
<glyph unicode="7" glyph-name="seven" horiz-adv-x="598" d="M301 0H238Q227 0 227 10Q227 181 283 280Q327 357 403 424Q436 453 465 482Q533 552 550 649H217L207 577Q206 565 193 565H130Q118 565 119 577L138 712Q140 724 152 724H649Q660 724 659 712L654
679Q635 558 566 476Q535 440 501 407T434 338T374 260Q316 167 316 13Q316 0 301 0Z" />
<glyph unicode="8" glyph-name="eight" horiz-adv-x="608" d="M601 233Q601 128 517 61T314 -7T130 45T65 181Q65 236 86 279T136 344Q195 386 232 386L233 387Q206 387 171 421T136 516Q136 590 198 654Q229 685 283 704T406 724Q517 724 570 674T623 556Q623
514 606 479T563 426Q511 387 485 387L484 386Q512 386 552 354Q573 338 587 306T601 233ZM365 345H340Q254 345 206 305T157 202T199 107T321 74T455 116T510 229Q510 284 473 314T365 345ZM497 448T514 475T531 544T497 614T389 644T270 605T224 510Q224 480
237 459T272 428Q313 409 350 409T414 415T469 434Z" />
<glyph unicode="9" glyph-name="nine" horiz-adv-x="612" d="M104 194H165Q175 194 175 171Q175 133 205 103T296 72Q382 72 440 133T523 306Q435 255 325 255T159 308T103 452Q103 569 186 646T400 724Q510 724 570 646T631 441T593 217T474 56T293 -7T141 38T88
158Q88 194 104 194ZM541 443Q541 523 512 574Q473 643 388 643T248 591T194 460Q194 398 234 361T347 323Q445 323 537 378Q541 413 541 443Z" />
<glyph unicode=":" glyph-name="colon" horiz-adv-x="171" d="M115 87T127 75T139 44T123 9T86 -7T55 5T43 36T59 71T95 87ZM171 488T183 476T195 445T179 409T143 393T111 405T99 437T115 472T151 488Z" />
<glyph unicode=";" glyph-name="semicolon" horiz-adv-x="179" d="M173 488T185 476T197 445T180 409T143 393T112 405T101 437T117 472T153 488ZM45 -73Q46 -67 58 -67T85 -52T101 -9L100 -2Q94 -7 80 -7T55 4T44 35T60 70T98 86Q144 86 144 27T117 -63T48 -95Q42
-95 42 -90L45 -73Z" />
<glyph unicode="&lt;" glyph-name="less" horiz-adv-x="438" d="M454 444Q462 444 461 435L455 392Q453 379 439 372L176 254L406 136Q418 131 416 117L410 74Q409 65 402 65Q399 65 396 66L83 226Q71 233 72 245L75 263Q76 275 91 282L449 443Q452 444 454 444Z" />
<glyph unicode="=" glyph-name="equal" horiz-adv-x="423" d="M419 335H99Q85 335 87 349L94 399Q96 413 110 413H430Q443 413 441 399L434 349Q432 335 419 335ZM385 100H65Q52 100 54 113L61 164Q63 177 76 177H396Q410 177 408 164L401 113Q399 100 385 100Z" />
<glyph unicode="&gt;" glyph-name="greater" horiz-adv-x="438" d="M56 65Q48 65 49 74L55 117Q57 131 71 136L334 254L104 372Q92 379 94 392L100 435Q101 444 108 444Q111 444 114 443L427 282Q439 275 437 263L435 245Q433 232 419 226L62 66Q58 65 56 65Z" />
<glyph unicode="?" glyph-name="question" horiz-adv-x="582" d="M320 127H251Q241 127 241 137Q241 202 270 251T342 331T426 389Q526 454 526 529Q526 581 487 612T373 644T252 604T196 499Q194 487 182 487H119Q108 487 108 497Q108 575 172 645Q204 680 260
702T390 724Q499 724 559 673T619 543Q619 481 591 434T521 355T439 296T367 228T335 139Q334 127 320 127ZM297 57T310 44T323 8T305 -31T264 -49T229 -36T216 0T234 39T275 57Z" />
<glyph unicode="@" glyph-name="at" horiz-adv-x="783" d="M374 -126Q238 -126 152 -39T66 185Q66 300 130 402T297 565T523 625T721 557T796 384Q796 311 771 251T706 154Q625 78 535 78H515Q492 78 484 86T481 116L487 141Q487 139 474 124T432 92T374 75Q322
75 287 109T251 213Q251 319 320 386T478 454Q545 454 562 408L569 433Q572 444 584 444H614Q625 444 622 432L543 137H565Q626 137 679 203T732 376Q732 458 671 508T504 558Q356 558 246 446T136 192Q136 81 206 12T384 -58Q444 -58 495 -49T568 -30L589 -21Q602
-14 605 -27L615 -62Q621 -75 608 -77Q598 -82 579 -90T498 -112T374 -126ZM472 401Q413 401 363 352T313 227Q313 180 336 157T396 134T468 167T513 231L541 334Q541 365 520 383T472 401Z" />
<glyph unicode="A" glyph-name="A" horiz-adv-x="841" d="M768 0H542Q530 0 532 12L539 63Q540 75 553 75H622L582 248H303L214 75H284Q297 75 294 63L287 12Q286 0 273 0H48Q36 0 38 12L45 63Q46 75 59 75H126L421 643H366Q354 643 356 655L363 706Q364 718 377
718H513Q537 718 548 708T566 675L711 75H778Q790 75 789 63L782 12Q780 0 768 0ZM566 317L496 614H492L340 317H566Z" />
<glyph unicode="B" glyph-name="B" horiz-adv-x="681" d="M384 0H61Q48 0 50 12L57 63Q58 75 71 75H148L228 643H151Q140 643 141 655L148 706Q150 718 162 718H484Q574 718 622 673T671 554Q671 434 559 375Q665 342 665 235T596 64T384 0ZM387 75Q470 75 523
114T577 230Q577 337 431 337H272L235 75H387ZM433 403Q491 403 536 437T581 533T546 619T457 643H315L281 403H433Z" />
<glyph unicode="C" glyph-name="C" horiz-adv-x="752" d="M388 -7Q258 -7 176 79T94 300T151 530T297 675T486 724Q640 724 695 617L706 706Q708 718 721 718H777Q790 718 788 706L757 488Q755 475 743 475H680Q667 475 669 488Q670 501 670 505Q670 547 618 594T479
642Q371 642 283 562Q240 523 214 459T187 316Q187 203 250 140T402 77Q570 77 665 203Q675 218 684 209L723 181Q730 174 722 161T700 131T657 89T592 43T503 8T388 -7Z" />
<glyph unicode="D" glyph-name="D" horiz-adv-x="740" d="M342 0H55Q44 0 45 12L52 63Q54 75 66 75H143L222 643H146Q134 643 135 655L143 706Q144 718 156 718H426Q574 718 658 638T743 416Q743 228 633 114T342 0ZM329 75Q485 75 568 161T651 407Q651 519 589
581T406 643H309L230 75H329Z" />
<glyph unicode="E" glyph-name="E" horiz-adv-x="653" d="M592 0H61Q48 0 50 12L57 63Q58 75 71 75H148L228 643H151Q140 643 141 655L148 706Q150 718 162 718H693Q705 718 705 710Q705 708 704 706L681 545Q679 532 668 532H614Q600 532 603 545L616 643H315L280
395H533Q546 395 544 383L537 332Q536 320 523 320H269L235 75H536L550 173Q552 185 564 185H619Q630 185 629 173L607 12Q606 0 592 0Z" />
<glyph unicode="F" glyph-name="F" horiz-adv-x="635" d="M337 0H61Q48 0 50 12L57 63Q58 75 71 75H148L228 643H151Q140 643 141 655L148 706Q150 718 162 718H675Q687 718 687 710Q687 708 686 706L664 545Q661 532 650 532H596Q582 532 585 545L598 643H315L280
395H515Q528 395 526 383L519 332Q518 320 505 320H269L235 75H348Q361 75 358 63L351 12Q350 0 337 0Z" />
<glyph unicode="G" glyph-name="G" horiz-adv-x="750" d="M690 0H637Q623 0 626 12L636 81Q537 -7 398 -7T177 79T94 309Q94 405 128 485T220 617T347 696T491 724Q645 724 697 629L706 706Q708 718 721 718H777Q790 718 788 706L759 500Q758 488 744 488H681Q670
488 671 500L672 512Q672 515 672 518Q672 560 621 601T483 642Q429 642 377 619T282 556T213 453T187 318Q187 206 251 142T405 77Q561 77 642 178L653 256H467Q454 256 456 269L462 315Q465 327 477 327H736Q748 327 746 315L703 12Q702 0 690 0Z" />
<glyph unicode="H" glyph-name="H" horiz-adv-x="820" d="M760 0H519Q508 0 509 12L516 63Q518 75 530 75H606L641 320H269L235 75H312Q324 75 323 63L316 12Q314 0 301 0H61Q48 0 50 12L57 63Q58 75 71 75H148L228 643H151Q140 643 141 655L148 706Q150 718 162
718H402Q414 718 413 706L406 655Q404 643 392 643H315L280 393H651L686 643H610Q598 643 599 655L606 706Q608 718 620 718H861Q874 718 872 706L865 655Q864 643 851 643H773L694 75H771Q784 75 781 63L774 12Q772 0 760 0Z" />
<glyph unicode="I" glyph-name="I" horiz-adv-x="362" d="M301 0H61Q48 0 50 12L57 63Q58 75 71 75H148L228 643H151Q140 643 141 655L148 706Q150 718 162 718H402Q414 718 414 710Q414 708 413 706L406 655Q404 643 392 643H315L235 75H312Q324 75 323 63L316
12Q314 0 301 0Z" />
<glyph unicode="J" glyph-name="J" horiz-adv-x="484" d="M273 643Q262 643 263 655L270 706Q272 718 284 718H524Q536 718 536 710Q536 708 535 706L528 655Q526 643 514 643H437L385 271Q365 125 287 63T61 0Q48 0 50 12L58 63Q60 75 71 75Q182 75 232 120T296
262L350 643H273Z" />
<glyph unicode="K" glyph-name="K" horiz-adv-x="763" d="M702 0H615Q579 0 563 48L495 239Q490 255 485 264T459 282T406 291H265L235 75H327Q340 75 338 63L331 12Q330 0 316 0H61Q48 0 50 12L57 63Q58 75 71 75H148L228 643H151Q140 643 141 655L148 706Q150
718 162 718H386Q398 718 397 706L390 655Q388 643 375 643H315L275 362H380Q486 362 546 424T629 643H560Q548 643 550 655L557 706Q558 718 571 718H794Q806 718 805 706L798 655Q796 643 783 643H715Q681 402 534 328Q564 313 576 283Q580 273 589 248L652 75H713Q726
75 723 63L716 12Q714 0 702 0Z" />
<glyph unicode="L" glyph-name="L" horiz-adv-x="670" d="M608 0H61Q48 0 50 12L57 63Q58 75 71 75H148L228 643H151Q140 643 141 655L148 706Q150 718 162 718H401Q415 718 413 705L406 656Q404 643 391 643H315L235 75H553L567 173Q568 185 581 185H636Q648
185 646 173L624 13Q622 0 608 0Z" />
<glyph unicode="M" glyph-name="M" horiz-adv-x="919" d="M859 0H628Q616 0 618 12L625 63Q626 75 639 75H706L776 573H775L519 101Q502 71 470 71T431 101L307 573H305L235 75H302Q314 75 313 63L306 12Q304 0 291 0H61Q48 0 50 12L57 63Q58 75 71 75H148L228
643H151Q140 643 141 655L148 706Q150 718 162 718H316Q349 718 359 684L457 324L487 198H490Q529 276 554 322L754 684Q772 718 807 718H960Q972 718 971 706L964 655Q962 643 949 643H873L793 75H870Q883 75 880 63L873 12Q872 0 859 0Z" />
<glyph unicode="N" glyph-name="N" horiz-adv-x="820" d="M670 0H616Q597 0 588 7T570 31L344 483L306 567H304L235 75H312Q324 75 323 63L316 12Q314 0 301 0H61Q48 0 50 12L57 63Q58 75 71 75H148L228 643H151Q140 643 141 655L148 706Q150 718 162 718H302Q332
718 348 684L571 238L614 141H616L686 643H610Q598 643 599 655L606 706Q608 718 620 718H861Q874 718 872 706L865 655Q864 643 851 643H773L685 12Q684 0 670 0Z" />
<glyph unicode="O" glyph-name="O" horiz-adv-x="793" d="M396 -7Q263 -7 179 81T94 312Q94 405 129 484T221 615T351 695T498 724Q626 724 713 640T800 414Q800 230 682 112T396 -7ZM407 74Q480 74 546 110T659 224T705 409T640 581T487 645Q380 645 288 564Q244
524 217 460T189 316Q189 203 252 139T407 74Z" />
<glyph unicode="P" glyph-name="P" horiz-adv-x="658" d="M322 0H61Q48 0 50 12L57 63Q58 75 71 75H148L228 643H151Q140 643 141 655L148 706Q150 718 162 718H470Q565 718 623 665T682 521Q682 405 606 338T397 271H263L235 75H332Q344 75 343 63L336 12Q334
0 322 0ZM403 342Q494 342 544 384T594 513Q594 578 552 610T445 643H315L273 342H403Z" />
<glyph unicode="Q" glyph-name="Q" horiz-adv-x="790" d="M712 -82Q658 -109 594 -109T485 -98T411 -70T362 -36T333 -8T325 4Q221 23 158 106T94 311Q94 405 129 484T221 615T351 695T498 724Q626 724 713 640T800 414Q800 242 694 126T432 -4Q495 -42 592 -42Q651
-42 699 -22Q711 -18 712 -26L721 -66Q723 -77 712 -82ZM408 77Q518 77 608 160Q652 199 678 262T705 403Q705 517 640 579T487 642Q380 642 288 562Q244 523 217 459T189 316Q189 203 253 140T408 77Z" />
<glyph unicode="R" glyph-name="R" horiz-adv-x="715" d="M655 0H568Q532 0 516 48L448 239Q439 265 428 277T392 289H265L235 75H324Q336 75 335 63L328 12Q326 0 314 0H61Q48 0 50 12L57 63Q58 75 71 75H148L228 643H151Q140 643 141 655L148 706Q150 718 162
718H470Q567 718 625 670T683 533T638 386T507 306Q525 291 544 239L605 75H665Q678 75 676 63L669 12Q668 0 655 0ZM403 360Q595 360 595 522Q595 643 442 643H315L275 360H403Z" />
<glyph unicode="S" glyph-name="S" horiz-adv-x="666" d="M117 0H61Q48 0 50 12L83 246Q85 259 97 259H160Q173 259 171 246L168 225Q165 207 183 175T222 123T279 89T361 74Q445 74 494 109T543 207Q543 263 464 290Q428 303 386 313T301 338T223 371T165 425T143
507Q143 599 216 661T406 724Q543 724 593 645L600 707Q602 719 614 719H671Q682 719 681 707L651 489Q648 477 636 477H573Q562 477 563 489L567 517Q568 522 568 526Q568 563 531 602T413 642T286 607T239 523T281 449T383 409T503 376T605 318T647 216Q647 123
576 58T366 -7Q274 -7 220 30T144 110L131 12Q130 0 117 0Z" />
<glyph unicode="T" glyph-name="T" horiz-adv-x="727" d="M478 0H245Q232 0 234 13L241 62Q243 75 256 75H332L412 643H222L207 537Q205 523 192 523H135Q122 523 124 537L148 705Q150 718 163 718H766Q780 718 778 705L754 537Q752 523 739 523H682Q669 523 671
537L686 643H499L419 75H489Q503 75 501 62L494 13Q492 0 478 0Z" />
<glyph unicode="U" glyph-name="U" horiz-adv-x="814" d="M603 643Q590 643 592 655L599 706Q600 718 613 718H854Q866 718 865 706L858 655Q856 643 844 643H767L714 269Q695 133 615 63T407 -7T217 64Q170 117 170 209Q170 237 175 269L227 643H150Q138 643
140 655L147 706Q148 718 161 718H402Q415 718 412 706L405 655Q404 643 391 643H314L261 266Q258 242 258 221Q258 74 418 74Q512 74 563 123T626 260L679 643H603Z" />
<glyph unicode="V" glyph-name="V" horiz-adv-x="848" d="M444 0H405Q386 0 378 9T363 40L215 643H150Q138 643 140 655L147 706Q148 718 161 718H386Q398 718 397 706L390 655Q388 643 376 643H307L435 106H441L720 643H651Q640 643 641 655L648 706Q650 718
662 718H888Q899 718 899 710Q899 708 898 706L891 655Q890 643 877 643H811L495 40Q484 18 474 9T444 0Z" />
<glyph unicode="W" glyph-name="W" horiz-adv-x="1094" d="M748 0H710Q671 0 668 40L623 548H621L435 40Q419 0 382 0H345Q309 0 303 40L204 643H140Q128 643 130 655L137 706Q138 718 151 718H377Q390 718 387 706L380 655Q378 643 366 643H296L375 106H381L606
718H687L740 106H746L976 643H906Q894 643 896 655L903 706Q904 718 917 718H1142Q1154 718 1153 706L1146 655Q1144 643 1132 643H1068L800 40Q782 0 748 0Z" />
<glyph unicode="X" glyph-name="X" horiz-adv-x="814" d="M746 0H505Q494 0 495 12L502 63Q504 75 516 75H582L449 308L245 75H312Q324 75 323 63L316 12Q314 0 301 0H61Q48 0 50 12L57 63Q58 75 71 75H149L405 362L228 643H151Q140 643 141 655L148 706Q150 718
162 718H402Q414 718 413 706L406 655Q404 643 392 643H323L463 417L664 643H603Q590 643 592 655L599 706Q600 718 613 718H854Q866 718 865 706L858 655Q856 643 844 643H760L506 362L677 75H756Q768 75 767 63L760 12Q758 0 746 0Z" />
<glyph unicode="Y" glyph-name="Y" horiz-adv-x="759" d="M500 0H259Q246 0 248 12L255 63Q256 75 270 75H346L376 289Q375 290 346 359Q255 576 218 643H150Q138 643 140 655L147 706Q148 718 161 718H386Q398 718 397 706L390 655Q388 643 376 643H310L428 365H434L628
643H563Q550 643 552 655L559 706Q560 718 573 718H799Q812 718 810 706L803 655Q802 643 788 643H720Q660 570 512 359L463 290L433 75H510Q522 75 521 63L514 12Q512 0 500 0Z" />
<glyph unicode="Z" glyph-name="Z" horiz-adv-x="641" d="M580 0H62Q48 0 50 13L57 56Q58 67 81 90L565 643H223L211 562Q209 548 196 548H139Q126 548 128 562L147 705Q150 718 163 718H681Q695 718 693 705L687 668Q684 650 661 627L178 75H520L532 156Q534
170 547 170H604Q617 170 615 156L595 13Q593 0 580 0Z" />
<glyph unicode="[" glyph-name="bracketleft" horiz-adv-x="304" d="M242 -71H41Q28 -71 30 -59L145 754Q146 766 158 766H360Q374 766 372 752L364 700Q362 687 350 687H219L123 8H254Q267 8 265 -6L258 -58Q256 -71 242 -71Z" />
<glyph unicode="\" glyph-name="backslash" horiz-adv-x="405" d="M345 -74H286Q274 -74 273 -62L144 748Q142 760 155 760H214Q226 760 228 748L357 -62Q358 -74 345 -74Z" />
<glyph unicode="]" glyph-name="bracketright" horiz-adv-x="304" d="M243 -71H42Q28 -71 30 -58L37 -6Q40 8 53 8H184L279 687H149Q135 687 137 700L145 752Q147 766 159 766H361Q374 766 372 754L258 -59Q256 -71 243 -71Z" />
<glyph unicode="_" glyph-name="underscore" horiz-adv-x="554" d="M488 -100H37Q24 -100 26 -87L33 -36Q35 -23 48 -23H499Q513 -23 511 -36L503 -87Q501 -100 488 -100Z" />
<glyph unicode="`" glyph-name="grave" horiz-adv-x="291" d="M307 575Q302 569 297 569T288 573L139 707Q135 711 135 715T141 726L177 763Q182 769 187 769T197 765L337 623Q342 618 342 614T337 604L307 575Z" />
<glyph unicode="a" glyph-name="a" horiz-adv-x="580" d="M529 0H442Q404 0 404 31Q404 36 405 42L412 93H410Q325 -8 201 -8Q136 -8 96 25T55 114Q55 204 133 247T347 290H431L433 302Q436 318 436 333Q436 427 320 427Q259 427 231 416T190 397T171 386T163
381Q152 377 148 384L125 419Q120 427 129 435T154 455T222 483T333 499Q519 499 519 344Q519 323 515 299L482 67H539Q550 67 549 55L543 12Q542 0 529 0ZM343 230Q251 230 212 217T158 184T143 134T168 83T236 63Q334 63 411 149L422 230H343Z" />
<glyph unicode="b" glyph-name="b" horiz-adv-x="613" d="M170 0H119Q108 0 109 12L199 651H143Q129 651 132 663L138 706Q140 718 152 718H275Q289 718 286 706L249 440L240 398H242Q266 439 311 469T421 499Q510 499 561 441T613 288Q613 158 538 76T348 -7Q285
-7 247 22T198 94H196L185 12Q184 0 170 0ZM347 63Q424 63 477 124T530 277Q530 347 494 388T392 429T273 370T218 216Q218 146 253 105T347 63Z" />
<glyph unicode="c" glyph-name="c" horiz-adv-x="539" d="M189 -7T130 51T70 211Q70 342 154 420T345 499T495 425H496L503 480Q505 493 517 493H555Q568 493 566 480L542 310Q540 298 528 298H483Q470 298 472 310L474 327Q475 331 475 336Q475 367 442 398T343
429T216 373T155 221Q155 148 197 106T295 63T401 90T468 141Q477 152 486 144L510 116Q519 107 511 97T487 72T444 38Q380 -7 285 -7Z" />
<glyph unicode="d" glyph-name="d" horiz-adv-x="612" d="M562 0H475Q452 0 445 8T437 26T438 42L445 98H444Q422 56 374 25T262 -7Q174 -7 122 51T70 207Q70 333 145 416T335 499Q396 499 433 471T483 401H484Q485 421 487 434L518 651H462Q450 651 451 663L457
706Q458 718 471 718H595Q608 718 606 706L516 67H572Q584 67 583 55L576 12Q574 0 562 0ZM284 63Q359 63 412 123T465 277Q465 348 429 388T335 429Q261 429 207 371T153 218Q153 148 189 106T284 63Z" />
<glyph unicode="e" glyph-name="e" horiz-adv-x="538" d="M517 236H157Q156 223 156 210Q156 146 194 105T294 63T401 89T468 140Q477 150 486 143L510 116Q519 107 511 97T487 72T442 38Q374 -7 282 -7T130 52T70 205T111 366T215 466T345 499Q436 499 486 446T537
297Q537 236 517 236ZM458 314Q458 364 429 398T340 433T233 399T167 297H457Q458 306 458 314Z" />
<glyph unicode="f" glyph-name="f" horiz-adv-x="387" d="M279 0H53Q40 0 42 12L49 55Q50 67 62 67H118L169 425H111Q98 425 100 437L106 480Q108 492 120 492H178L187 554Q198 637 246 680T363 724T467 684Q472 680 472 676T467 667L438 636Q429 627 421 634Q397
653 363 653T303 628T269 553L261 492H389Q400 492 399 480L393 437Q392 425 379 425H252L201 67H289Q302 67 300 55L293 12Q292 0 279 0Z" />
<glyph unicode="g" glyph-name="g" horiz-adv-x="611" d="M235 -234Q186 -234 161 -227T121 -215T97 -204T78 -192Q46 -169 46 -158Q46 -154 50 -150L81 -113Q88 -104 98 -112Q129 -137 144 -143T173 -153Q204 -162 244 -162Q316 -162 364 -128T423 -19L439 90Q414
49 369 21T262 -7Q172 -7 121 52T69 207Q69 336 144 417T333 499Q395 499 433 471T486 401H488L498 480Q500 492 511 492H629Q642 492 640 480L634 437Q632 425 619 425H565L503 -19Q488 -126 415 -180T235 -234ZM152 147T188 105T291 63T411 124T465 277Q465 347
429 388T335 429Q259 429 206 370T152 216Q152 147 188 105Z" />
<glyph unicode="h" glyph-name="h" horiz-adv-x="621" d="M570 0H475Q437 0 437 31Q437 36 438 42L474 305Q476 320 476 333Q476 371 460 394Q437 427 385 427Q329 427 280 368Q247 326 228 276L199 67H252Q264 67 263 55L257 12Q256 0 242 0H51Q38 0 40 12L47
55Q48 67 60 67H116L198 651H143Q129 651 132 663L138 706Q140 718 152 718H278Q290 718 289 706L257 479Q252 447 245 410T237 371H239Q242 384 258 411T291 454T341 485T413 499Q493 499 532 452Q562 415 562 359Q562 343 560 325L524 67H580Q592 67 591 55L585
12Q584 0 570 0Z" />
<glyph unicode="i" glyph-name="i" horiz-adv-x="293" d="M242 0H51Q38 0 40 12L47 55Q48 67 60 67H116L167 425H111Q98 425 100 437L106 480Q108 492 120 492H246Q258 492 257 480L199 67H252Q264 67 263 55L257 12Q256 0 242 0ZM260 657T274 643T288 605T268
564T225 545T189 559T175 596T194 638T236 657Z" />
<glyph unicode="j" glyph-name="j" horiz-adv-x="326" d="M345 657T359 643T373 605T353 564T310 545T274 559T260 596T279 638T321 657ZM192 425Q180 425 182 437L188 480Q190 492 202 492H329Q340 492 340 484Q340 482 339 480L263 -64Q251 -147 203 -190T86
-234T-17 -195Q-21 -191 -21 -186T-16 -176L11 -146Q21 -136 30 -144Q49 -163 85 -163T147 -138T181 -63L249 425H192Z" />
<glyph unicode="k" glyph-name="k" horiz-adv-x="614" d="M570 0H516Q487 0 468 31L324 271L215 181L199 67H252Q264 67 263 55L257 12Q256 0 242 0H51Q38 0 40 12L47 55Q48 67 60 67H116L198 651H143Q129 651 132 663L138 706Q140 718 152 718H278Q290 718 289
706L226 258L432 425H395Q382 425 384 437L390 480Q393 492 405 492H597Q608 492 607 480L601 437Q600 425 587 425H522L385 318L536 67H580Q592 67 591 55L584 12Q582 0 570 0Z" />
<glyph unicode="l" glyph-name="l" horiz-adv-x="293" d="M242 0H51Q38 0 40 12L47 55Q48 67 60 67H116L199 651H143Q129 651 132 663L138 706Q140 718 152 718H263Q288 718 288 699Q288 696 287 693L199 67H252Q264 67 263 55L257 12Q256 0 242 0Z" />
<glyph unicode="m" glyph-name="m" horiz-adv-x="931" d="M786 333Q786 370 769 394Q746 427 696 427Q617 427 558 317L524 67H580Q592 67 591 55L584 12Q582 0 570 0H379Q366 0 368 12L375 55Q376 67 388 67H441L474 305Q476 320 476 333Q476 370 459 394Q436
427 386 427Q352 427 322 407T272 358Q244 317 230 281L199 67H247Q260 67 258 55L252 12Q250 0 238 0H51Q38 0 40 12L47 55Q48 67 60 67H116L167 425H111Q98 425 100 437L106 480Q108 492 120 492H218Q236 492 242 486T246 462L231 360H234L239 375Q242 384 256
408T288 450T340 484T425 499T512 470T558 391Q612 499 724 499Q805 499 842 451Q871 414 871 359Q871 343 869 325L834 67H890Q902 67 901 55L895 12Q894 0 880 0H785Q762 0 755 8T747 26T748 42L784 305Q786 320 786 333Z" />
<glyph unicode="n" glyph-name="n" horiz-adv-x="621" d="M570 0H475Q437 0 437 31Q437 36 438 42L474 305Q476 320 476 333Q476 370 459 394Q436 427 386 427Q352 427 321 407T271 356Q241 311 228 277L199 67H252Q264 67 263 55L257 12Q256 0 242 0H51Q38 0
40 12L47 55Q48 67 60 67H116L167 425H111Q98 425 100 437L106 480Q108 492 120 492H238Q250 492 248 480L230 360H233Q235 374 252 403T287 450T339 484T414 499Q494 499 532 452Q562 415 562 359Q562 343 560 325L524 67H580Q592 67 591 55L585 12Q584 0 570
0Z" />
<glyph unicode="o" glyph-name="o" horiz-adv-x="575" d="M286 -7Q190 -7 130 52T70 212Q70 341 154 420T358 499Q454 499 514 441T574 283Q574 155 491 74T286 -7ZM154 149T194 106T303 63T431 122T490 274Q490 344 449 386T348 429Q272 429 213 371T154 220Q154
149 194 106Z" />
<glyph unicode="p" glyph-name="p" horiz-adv-x="613" d="M220 -225H19Q6 -225 8 -213L15 -170Q16 -158 28 -158H85L167 425H113Q100 425 102 437L108 480Q110 492 122 492H239Q253 492 250 480L237 397H239Q300 499 419 499Q508 499 560 442T612 287Q612 161
538 77T349 -7Q287 -7 250 21T200 91H197Q195 59 193 45L165 -158H230Q242 -158 240 -170L235 -213Q234 -225 220 -225ZM347 63Q422 63 476 123T530 276Q530 346 494 387T393 429T272 372T216 211Q216 143 254 103T347 63Z" />
<glyph unicode="q" glyph-name="q" horiz-adv-x="613" d="M531 -225H330Q318 -225 319 -213L325 -170Q326 -158 338 -158H404L433 50L442 95H440Q416 53 370 23T262 -7Q173 -7 122 52T70 207Q70 337 145 418T334 499Q396 499 434 471T486 402H488L498 480Q500
492 512 492H563Q576 492 574 480L484 -158H540Q552 -158 551 -170L545 -213Q542 -225 531 -225ZM284 63Q358 63 411 122T465 277Q465 348 429 388T336 429Q260 429 207 370T153 217Q153 147 189 105T284 63Z" />
<glyph unicode="r" glyph-name="r" horiz-adv-x="421" d="M242 0H51Q38 0 40 12L47 55Q48 67 60 67H116L167 425H111Q98 425 100 437L106 480Q108 492 120 492H238Q251 492 248 480L231 355H234Q240 372 261 399T307 445T374 479T468 494Q481 494 479 481L471
428Q469 415 457 415H436Q350 415 291 360T222 235L199 67H252Q264 67 263 55L257 12Q256 0 242 0Z" />
<glyph unicode="s" glyph-name="s" horiz-adv-x="486" d="M259 -7Q192 -7 156 18T112 65H110Q105 16 105 13Q103 0 89 0H55Q42 0 44 13L65 163Q67 176 80 176H119Q133 176 131 163L128 143Q129 140 130 134T141 114T163 88Q196 58 255 58T346 81T377 142Q377 167
349 182T281 207T201 229T133 270T105 341Q105 412 159 455T294 499Q393 499 427 441H429Q432 473 432 474Q433 491 448 491H480Q493 491 491 478L471 339Q469 326 455 326H416Q403 326 405 339L407 353Q408 357 408 361Q408 384 382 408T303 433T219 410T187 348Q187
303 285 278Q326 267 367 255T436 216T465 148Q465 84 414 39T259 -7Z" />
<glyph unicode="t" glyph-name="t" horiz-adv-x="401" d="M268 -7Q192 -7 156 36Q128 69 128 124Q128 142 131 163L168 425H111Q97 425 99 438L105 479Q107 492 121 492H177L191 593Q193 607 207 607H263Q277 607 275 593L260 492H387Q399 492 399 483Q399 481
398 479L393 438Q391 425 377 425H251L215 165Q213 150 213 137Q213 64 285 64Q316 64 342 85Q355 88 360 82L380 51Q386 42 374 32Q325 -7 268 -7Z" />
<glyph unicode="u" glyph-name="u" horiz-adv-x="608" d="M202 492Q241 492 241 460Q241 456 240 450L202 187Q200 173 200 160Q200 122 218 98Q241 65 291 65Q322 65 350 81T395 119T426 164Q450 208 450 220L478 425H425Q412 425 414 437L421 480Q422 492 434
492H558Q570 492 569 480L511 67H567Q578 67 577 55L571 12Q570 0 557 0H470Q431 0 431 32Q431 36 432 42L447 133H444Q441 118 425 89T391 42T340 8T267 -7Q187 -7 147 40Q116 78 116 134Q116 150 118 167L153 425H97Q84 425 86 437L93 480Q94 492 106 492H202Z"
/>
<glyph unicode="v" glyph-name="v" d="M326 0H259Q249 0 245 3T239 18L138 425H82Q70 425 71 437L78 480Q80 492 91 492H277Q288 492 287 480L282 437Q280 425 267 425H223L304 88H306L483 425H438Q426 425 428 437L434 480Q436 492 448 492H634Q646 492 645 480L639
437Q638 425 625 425H569L352 18Q342 0 326 0Z" />
<glyph unicode="w" glyph-name="w" horiz-adv-x="812" d="M576 0H517Q496 0 496 21L459 356H456L324 21Q317 0 296 0H238Q220 0 217 21L142 425H86Q74 425 75 437L82 480Q84 492 95 492H282Q294 492 292 480L286 437Q284 425 272 425H226L280 88H282L417 425H379Q366
425 368 437L375 480Q376 492 388 492H564Q576 492 575 480L568 437Q566 425 554 425H515L557 88H559L705 425H660Q648 425 650 437L656 480Q658 492 670 492H856Q868 492 867 480L861 437Q860 425 846 425H792L603 21Q594 0 576 0Z" />
<glyph unicode="x" glyph-name="x" horiz-adv-x="557" d="M523 0H335Q324 0 325 12L331 55Q332 67 345 67H395L298 212L167 67H212Q224 67 223 55L217 12Q216 0 203 0H34Q22 0 24 12L30 55Q32 67 44 67H92L264 251L143 425H95Q82 425 84 437L90 480Q92 492 104
492H291Q304 492 302 480L296 437Q293 425 282 425H235L333 282L454 425H415Q402 425 404 437L410 480Q412 492 424 492H593Q604 492 603 480L597 437Q594 425 583 425H530L368 240L489 67H532Q544 67 543 55L537 12Q536 0 523 0Z" />
<glyph unicode="y" glyph-name="y" horiz-adv-x="590" d="M263 11Q253 11 248 16T240 36L142 425H87Q74 425 76 437L82 480Q84 492 96 492H277Q290 492 287 480L282 437Q280 425 267 425H227L308 86H310L477 425H432Q420 425 422 437L428 480Q430 492 442 492H628Q640
492 638 480L633 437Q632 425 618 425H563L315 -64Q270 -153 229 -193T125 -234T27 -195Q22 -190 22 -186T26 -177L56 -145Q62 -139 73 -143Q98 -163 129 -163T185 -141T238 -63L275 11H263Z" />
<glyph unicode="z" glyph-name="z" horiz-adv-x="519" d="M468 0H51Q38 0 40 12L46 53Q49 73 66 87L437 425H167L156 348Q154 336 141 336H98Q86 336 88 348L106 480Q108 492 120 492H538Q549 492 549 484Q549 482 548 480L543 445Q540 426 524 413L148 67H422L433
146Q434 158 447 158H491Q504 158 501 146L483 12Q482 0 468 0Z" />
<glyph unicode="{" glyph-name="braceleft" horiz-adv-x="341" d="M279 -72Q130 -72 130 50Q130 66 133 84L149 204Q151 217 151 239T134 290T96 319Q83 319 85 333L89 364Q91 377 108 377T154 410T190 493L206 607Q230 765 396 765Q410 765 408 752L401 700Q399
687 385 687Q341 687 319 667T289 600L274 494Q269 454 248 422T209 378L191 365L186 331Q188 329 192 326T206 312Q234 277 234 226Q234 215 233 203L218 91Q216 78 216 59T230 23T290 6Q303 6 301 -7L294 -59Q292 -72 279 -72Z" />
<glyph unicode="|" glyph-name="bar" horiz-adv-x="160" d="M91 -131H32Q20 -131 21 -119L143 748Q144 760 158 760H217Q228 760 227 748L105 -119Q104 -131 91 -131Z" />
<glyph unicode="}" glyph-name="braceright" horiz-adv-x="341" d="M41 -72Q28 -72 30 -59L37 -7Q39 6 52 6Q97 6 119 25T148 91L164 203Q171 264 221 312Q232 322 247 331L252 365Q250 367 246 370T232 384T216 410T207 441T202 470T205 494L220 600Q222 613
222 632T208 669T148 687Q134 687 136 700L144 752Q146 765 159 765Q234 765 276 728Q308 700 308 643Q308 626 305 607L289 493Q287 480 287 457T304 406T342 378Q355 378 353 364L349 333Q347 319 331 319T285 287T248 204L231 84Q210 -72 41 -72Z" />
<glyph unicode="&#xa1;" glyph-name="exclamdown" horiz-adv-x="182" d="M83 -268H23Q12 -268 13 -256L96 332Q98 344 109 344H169Q182 344 180 332L97 -256Q96 -268 83 -268ZM187 541T200 528T213 492T195 453T155 435T119 448T106 484T124 523T165 541Z" />
<glyph unicode="&#xa2;" glyph-name="cent" horiz-adv-x="539" d="M298 -13H255Q242 -13 244 -1L252 53Q174 64 126 121T78 268Q78 388 150 464T322 553L332 624Q334 636 347 636H390Q402 636 400 624L390 551Q480 538 503 481H506L511 537Q512 549 525 549H563Q576
549 574 537L550 367Q548 355 536 355H491Q478 355 480 367L482 384Q483 388 483 393Q483 423 450 454T351 485T224 429T163 277Q163 204 203 162T302 120T409 147T476 198Q486 208 494 201L518 172Q527 165 518 152T487 120T418 79T319 51L312 -1Q310 -13 298
-13Z" />
<glyph unicode="&#xa3;" glyph-name="sterling" horiz-adv-x="598" d="M548 0H60Q48 0 50 12L57 60Q60 76 71 82Q72 83 89 93T118 112T148 136T178 168Q206 207 206 254Q206 276 201 296H92Q80 296 82 308L87 345Q88 357 101 357H174Q147 417 147 471Q147 589
228 656T434 724Q537 724 590 668Q632 624 632 554Q632 537 629 518L627 502Q626 490 612 490H551Q540 490 541 502L543 519Q544 529 544 538Q544 580 515 613T419 646T296 602T238 474Q238 436 266 378Q274 360 275 357H465Q476 357 475 345L470 308Q468 296 456
296H294Q297 279 297 256Q294 156 182 75H558Q570 75 569 63L562 12Q560 0 548 0Z" />
<glyph unicode="&#xa5;" glyph-name="yen" horiz-adv-x="759" d="M500 0H259Q246 0 248 12L255 63Q256 75 270 75H346L366 215H241Q228 215 230 228L236 267Q238 279 250 279H363L367 305L345 355H220Q208 355 210 368L215 407Q218 419 229 419H313L218 643H150Q138
643 140 655L147 706Q148 718 161 718H386Q398 718 397 706L390 655Q388 643 376 643H310L428 365H434L628 643H563Q550 643 552 655L559 706Q560 718 573 718H799Q812 718 810 706L803 655Q802 643 788 643H720L562 419H643Q656 419 654 407L648 368Q646 355 634
355H513L476 305L472 279H581Q592 279 591 267L586 228Q584 215 572 215H453L433 75H510Q522 75 521 63L514 12Q512 0 500 0Z" />
<glyph unicode="&#xa6;" glyph-name="brokenbar" horiz-adv-x="160" d="M167 410H108Q95 410 98 422L143 748Q144 760 158 760H217Q228 760 227 748L181 422Q180 410 167 410ZM91 -131H32Q20 -131 21 -119L67 207Q68 219 81 219H141Q152 219 151 207L105 -119Q104
-131 91 -131Z" />
<glyph unicode="&#xa7;" glyph-name="section" horiz-adv-x="646" d="M75 -224H19Q6 -224 8 -212L41 22Q42 34 55 34H118Q130 34 129 22L126 0Q123 -20 142 -51T181 -102T238 -136T319 -150Q403 -150 452 -115T501 -18Q501 13 479 35T422 71T344 95T259 120T181
152T123 204T101 283Q101 360 158 420Q132 454 132 506Q132 599 205 661T396 724Q532 724 582 645L590 707Q592 719 604 719H660Q671 719 671 711Q671 709 670 707L640 489Q638 477 626 477H563Q550 477 552 489L556 514Q557 519 557 525Q557 561 521 601T403 642T276
607T229 518Q229 485 251 461T310 423T389 398T476 372T556 340T614 291T637 216Q637 137 579 75Q606 40 606 -9Q606 -101 535 -166T324 -231Q232 -231 178 -195T103 -115H101L90 -212Q88 -224 75 -224ZM497 124Q532 159 532 202T499 270T422 306Q279 340 231 369Q197
335 197 295T230 227T307 188Q455 149 497 124Z" />
<glyph unicode="&#xa8;" glyph-name="dieresis" horiz-adv-x="313" d="M183 641T193 630T204 602T190 570T157 556T129 566T119 594T133 626T165 641ZM341 641T351 630T362 602T348 570T315 556T287 566T277 594T291 626T323 641Z" />
<glyph unicode="&#xa9;" glyph-name="copyright" horiz-adv-x="670" d="M684 381Q684 250 579 151T342 51Q233 51 159 128T84 315Q84 446 188 545T426 645Q535 645 609 568T684 381ZM631 376Q631 468 571 530T419 592Q307 592 222 511T137 320Q137 228 197 166T350
104Q461 104 546 185T631 376ZM357 175Q295 175 255 215T215 325Q215 416 272 471T407 527Q447 527 477 510T518 478Q536 454 536 448T531 437L499 417Q492 412 489 419Q469 471 399 471Q349 471 312 434T275 340T301 257T367 231Q431 231 470 280Q475 288 481
283L506 265Q517 257 483 224Q468 209 433 192T357 175Z" />
<glyph unicode="&#xaa;" glyph-name="ordfeminine" horiz-adv-x="328" d="M283 509Q238 471 198 471T135 488T113 540T145 597T235 619H295V622Q295 628 295 642T287 669T255 682T219 680T199 675T185 669T174 662T165 663L153 684Q149 689 154 691Q186 724 252
724Q344 724 344 643Q344 632 342 620L327 514H356Q360 514 360 509L356 481Q354 475 350 475H301Q279 475 282 496L284 509H283ZM208 512Q252 512 284 544L290 588H234Q164 588 164 546Q164 530 176 521T208 512Z" />
<glyph unicode="&#xab;" glyph-name="guillemotleft" horiz-adv-x="521" d="M332 432Q336 435 338 435T343 435T345 427L339 383Q335 368 322 361L142 246L290 132Q303 121 300 110L294 66Q293 58 286 58Q283 58 280 61L81 213Q69 223 71 236L74 258Q75 269 91
279L332 432ZM529 432Q533 435 535 435T540 435T542 427L536 383Q534 370 520 361L339 246L488 132Q499 121 498 110L491 66Q490 57 486 57T477 61L278 213Q266 223 268 236L272 258Q274 271 288 279L529 432Z" />
<glyph unicode="&#xac;" glyph-name="logicalnot" horiz-adv-x="565" d="M533 141H487Q474 141 476 153L501 324H97Q83 324 85 337L91 380Q93 393 106 393H568Q581 393 579 380L548 153Q546 141 533 141Z" />
<glyph unicode="&#xae;" glyph-name="registered" horiz-adv-x="670" d="M684 381Q684 250 579 151T342 51Q233 51 159 128T84 315Q84 446 188 545T426 645Q535 645 609 568T684 381ZM349 100Q462 100 548 182T634 377Q634 469 573 532T419 596Q306 596 220 514T133
320Q133 227 194 164T349 100ZM505 179H459Q444 179 437 201L399 300Q392 322 377 322H325L311 225H348Q353 225 353 220L349 185Q348 179 342 179H225Q220 179 221 185L226 220Q228 225 232 225H263L298 480H268Q262 480 264 486L268 521Q270 526 274 526H422Q467
526 495 504T523 439Q523 350 439 328Q440 326 452 298L480 226H511Q516 226 516 221L511 185Q510 179 505 179ZM396 365Q472 365 472 432Q472 480 413 480H347L331 365H396Z" />
<glyph unicode="&#xaf;" glyph-name="overscore" horiz-adv-x="392" d="M421 554H126Q113 554 115 567L121 609Q123 623 136 623H431Q445 623 443 609L437 567Q435 554 421 554Z" />
<glyph unicode="&#xb0;" glyph-name="degree" horiz-adv-x="220" d="M253 465T228 442T173 419T125 436T107 487T132 546T187 571T235 553T253 500ZM146 475T154 466T176 457T202 469T215 498T207 524T184 533T158 521T146 492Z" />
<glyph unicode="&#xb1;" glyph-name="plusminus" horiz-adv-x="401" d="M395 329H290L274 222Q272 209 260 209H203Q190 209 192 222L208 329H98Q85 329 87 342L94 393Q96 406 108 406H218L233 516Q236 528 248 528H305Q316 528 315 516L300 406H406Q420 406 418
393L411 342Q409 329 395 329ZM362 91H64Q51 91 53 104L60 155Q62 168 75 168H372Q386 168 384 155L377 104Q375 91 362 91Z" />
<glyph unicode="&#xb4;" glyph-name="acute" horiz-adv-x="291" d="M164 572Q159 569 154 569T144 575L124 604Q121 607 121 612T129 623L309 764Q314 768 318 768L329 763L354 725Q357 721 357 717T350 706L164 572Z" />
<glyph unicode="&#xb6;" glyph-name="paragraph" horiz-adv-x="663" d="M546 -78H483Q472 -78 473 -66L572 643H501L401 -66Q400 -78 387 -78H325Q312 -78 314 -66L356 236H316Q216 236 159 285T101 433Q101 569 178 643T374 718H714Q726 718 724 706L717 655Q716
643 703 643H660L560 -66Q558 -78 546 -78Z" />
<glyph unicode="&#xb7;" glyph-name="middot" horiz-adv-x="151" d="M105 337T117 325T129 294T113 259T76 243T45 254T33 286T49 321T85 337Z" />
<glyph unicode="&#xb8;" glyph-name="cedilla" horiz-adv-x="236" d="M190 -110T163 -133T96 -156T22 -133Q18 -130 18 -126T22 -117L34 -105Q43 -97 50 -102Q66 -115 93 -115Q141 -115 141 -78Q141 -56 95 -56Q71 -56 78 -39L106 18L148 17L128 -25Q190 -25 190
-73Q190 -110 163 -133Z" />
<glyph unicode="&#xba;" glyph-name="ordmasculine" horiz-adv-x="317" d="M365 553T324 512T232 471T151 501T121 588T162 685T255 724T335 695T365 610ZM165 552T184 533T235 513T294 539T321 605T303 664T253 683T193 657T165 591Z" />
<glyph unicode="&#xbb;" glyph-name="guillemotright" horiz-adv-x="521" d="M258 61Q254 58 252 58T247 58T245 66L252 110Q254 122 268 132L449 246L300 361Q287 372 290 383L296 427Q297 436 301 436T310 432L509 279Q520 272 520 266T519 258L516 236Q514
223 500 213L258 61ZM61 61Q57 58 55 58T50 58T48 66L54 110Q55 121 70 132L252 246L103 361Q90 370 92 383L99 427Q100 435 106 435L112 432L311 279Q324 270 322 258L319 236Q316 222 302 213L61 61Z" />
<glyph unicode="&#xbd;" glyph-name="onehalf" horiz-adv-x="703" d="M227 -74H168Q156 -74 161 -62L517 748Q523 760 535 760H594Q607 760 601 748L245 -62Q240 -74 227 -74ZM655 0H412Q402 0 403 10L406 31Q413 73 439 102T498 146T563 174Q638 206 638 260Q638
284 622 297T579 311Q501 311 493 249Q492 241 485 241H446Q440 241 440 248Q440 290 478 326T578 362T668 336T696 268T675 198T623 153T559 124Q479 90 469 48H621L626 83Q627 91 635 91H670Q677 91 677 83L666 10Q665 0 655 0ZM312 362H122Q113 362 114 372L117
401Q118 410 129 410H201L236 660L156 605Q150 601 146 606L129 634Q126 638 133 644L241 718Q245 721 254 721H293Q300 721 300 712L258 410H319Q328 410 327 401L324 372Q323 362 312 362Z" />
<glyph unicode="&#xbf;" glyph-name="questiondown" horiz-adv-x="582" d="M317 323H386Q396 323 396 313Q396 248 367 199T296 119T212 61Q111 -4 111 -79Q111 -131 150 -162T264 -194T385 -154T441 -49Q442 -37 455 -37H518Q529 -37 529 -47Q529 -125 465 -195Q433
-230 377 -252T247 -274Q138 -274 78 -223T18 -93Q18 -31 46 16T116 95T198 154T270 222T302 311Q304 323 317 323ZM340 393T327 406T314 442T332 481T373 499T408 486T421 450T403 411T362 393Z" />
<glyph unicode="&#xc0;" glyph-name="Agrave" horiz-adv-x="841" d="M768 0H542Q530 0 532 12L539 63Q540 75 553 75H622L582 248H303L214 75H284Q297 75 294 63L287 12Q286 0 273 0H48Q36 0 38 12L45 63Q46 75 59 75H126L421 643H366Q354 643 356 655L363 706Q364
718 377 718H513Q537 718 548 708T566 675L711 75H778Q790 75 789 63L782 12Q780 0 768 0ZM566 317L496 614H492L340 317H566ZM583 801Q578 795 573 795T564 799L415 933Q411 937 411 941T417 952L453 989Q458 995 463 995T473 991L613 849Q618 844 618 840T613
830L583 801Z" />
<glyph unicode="&#xc1;" glyph-name="Aacute" horiz-adv-x="841" d="M768 0H542Q530 0 532 12L539 63Q540 75 553 75H622L582 248H303L214 75H284Q297 75 294 63L287 12Q286 0 273 0H48Q36 0 38 12L45 63Q46 75 59 75H126L421 643H366Q354 643 356 655L363 706Q364
718 377 718H513Q537 718 548 708T566 675L711 75H778Q790 75 789 63L782 12Q780 0 768 0ZM566 317L496 614H492L340 317H566ZM516 798Q511 795 506 795T496 801L476 830Q473 833 473 838T481 849L661 990Q666 994 670 994L681 989L706 951Q709 947 709 943T702
932L516 798Z" />
<glyph unicode="&#xc2;" glyph-name="Acircumflex" horiz-adv-x="841" d="M768 0H542Q530 0 532 12L539 63Q540 75 553 75H622L582 248H303L214 75H284Q297 75 294 63L287 12Q286 0 273 0H48Q36 0 38 12L45 63Q46 75 59 75H126L421 643H366Q354 643 356 655L363
706Q364 718 377 718H513Q537 718 548 708T566 675L711 75H778Q790 75 789 63L782 12Q780 0 768 0ZM566 317L496 614H492L340 317H566ZM661 801Q655 795 651 795T642 799L533 904L396 799Q391 795 386 795T377 801L356 830Q353 834 353 838T361 849L535 985Q540
989 545 989T555 984L690 849Q694 844 694 840T690 830L661 801Z" />
<glyph unicode="&#xc3;" glyph-name="Atilde" horiz-adv-x="841" d="M768 0H542Q530 0 532 12L539 63Q540 75 553 75H622L582 248H303L214 75H284Q297 75 294 63L287 12Q286 0 273 0H48Q36 0 38 12L45 63Q46 75 59 75H126L421 643H366Q354 643 356 655L363 706Q364
718 377 718H513Q537 718 548 708T566 675L711 75H778Q790 75 789 63L782 12Q780 0 768 0ZM566 317L496 614H492L340 317H566ZM653 910H677Q687 910 687 901Q687 852 661 819T584 785Q559 785 539 795T508 816Q480 848 457 848T422 836T406 791Q404 779 392 779H369Q358
779 358 789Q358 834 383 866T459 899Q482 899 501 889T532 866Q560 833 586 833T623 847T639 898Q640 910 653 910Z" />
<glyph unicode="&#xc4;" glyph-name="Adieresis" horiz-adv-x="841" d="M768 0H542Q530 0 532 12L539 63Q540 75 553 75H622L582 248H303L214 75H284Q297 75 294 63L287 12Q286 0 273 0H48Q36 0 38 12L45 63Q46 75 59 75H126L421 643H366Q354 643 356 655L363
706Q364 718 377 718H513Q537 718 548 708T566 675L711 75H778Q790 75 789 63L782 12Q780 0 768 0ZM566 317L496 614H492L340 317H566ZM465 867T475 856T486 828T472 796T439 782T411 792T401 820T415 852T447 867ZM623 867T633 856T644 828T630 796T597 782T569
792T559 820T573 852T605 867Z" />
<glyph unicode="&#xc5;" glyph-name="Aring" horiz-adv-x="841" d="M768 0H542Q530 0 532 12L539 63Q540 75 553 75H622L582 248H303L214 75H284Q297 75 294 63L287 12Q286 0 273 0H48Q36 0 38 12L45 63Q46 75 59 75H126L421 643H366Q354 643 356 655L363 706Q364
718 377 718H513Q537 718 548 708T566 675L711 75H778Q790 75 789 63L782 12Q780 0 768 0ZM566 317L496 614H492L340 317H566ZM569 834Q552 800 511 800Q499 800 487 805Q466 820 466 843T477 882Q488 904 512 912Q524 916 535 916T559 911Q580 896 580 873T569
834ZM535 886Q530 888 525 888T510 883T497 868T494 854Q494 837 511 830Q516 828 521 828T536 834Q551 843 551 861T535 886Z" />
<glyph unicode="&#xc6;" glyph-name="AE" horiz-adv-x="1044" d="M984 0H452Q440 0 442 12L449 63Q450 75 463 75H539L574 320H366L226 75H296Q308 75 307 63L300 12Q298 0 285 0H61Q48 0 50 12L57 63Q58 75 71 75H139L460 643H406Q394 643 396 655L403 706Q404
718 416 718H1085Q1098 718 1096 706L1073 545Q1071 532 1059 532H1005Q992 532 994 545L1008 643H706L671 395H925Q938 395 936 383L929 332Q928 320 914 320H661L626 75H928L941 173Q944 185 956 185H1010Q1022 185 1021 173L998 12Q996 0 984 0ZM584 395L619
643H548L406 395H584Z" />
<glyph unicode="&#xc7;" glyph-name="Ccedilla" horiz-adv-x="752" d="M450 -110T423 -133T356 -156T282 -133Q273 -126 282 -117L294 -105Q303 -97 310 -102Q326 -115 353 -115Q401 -115 401 -78Q401 -56 355 -56Q331 -56 338 -39L354 -5Q238 6 166 91T94 305T151
530T297 675T486 724Q640 724 695 617L706 706Q708 718 721 718H777Q790 718 788 706L757 488Q755 475 743 475H680Q667 475 669 488Q670 501 670 505Q670 547 618 594T479 642Q371 642 283 562Q240 523 214 459T187 316Q187 203 250 140T402 77Q570 77 665 203Q675
218 684 209L723 181Q730 174 722 161T701 132T659 90T595 45T507 10T396 -6L388 -25Q450 -25 450 -73Q450 -110 423 -133Z" />
<glyph unicode="&#xc8;" glyph-name="Egrave" horiz-adv-x="653" d="M592 0H61Q48 0 50 12L57 63Q58 75 71 75H148L228 643H151Q140 643 141 655L148 706Q150 718 162 718H693Q705 718 705 710Q705 708 704 706L681 545Q679 532 668 532H614Q600 532 603 545L616
643H315L280 395H533Q546 395 544 383L537 332Q536 320 523 320H269L235 75H536L550 173Q552 185 564 185H619Q630 185 629 173L607 12Q606 0 592 0ZM492 801Q487 795 482 795T473 799L324 933Q320 937 320 941T326 952L362 989Q367 995 372 995T382 991L522 849Q527
844 527 840T522 830L492 801Z" />
<glyph unicode="&#xc9;" glyph-name="Eacute" horiz-adv-x="653" d="M572 932L386 798Q373 791 366 801L346 830Q338 839 351 849L531 990Q536 994 540 994L551 989L576 951Q584 942 572 932ZM592 0H61Q48 0 50 12L57 63Q58 75 71 75H148L228 643H151Q140 643
141 655L148 706Q150 718 162 718H693Q705 718 705 710Q705 708 704 706L681 545Q679 532 668 532H614Q600 532 603 545L616 643H315L280 395H533Q546 395 544 383L537 332Q536 320 523 320H269L235 75H536L550 173Q552 185 564 185H619Q630 185 629 173L607 12Q606
0 592 0Z" />
<glyph unicode="&#xca;" glyph-name="Ecircumflex" horiz-adv-x="653" d="M434 985Q439 989 444 989T454 984L589 849Q597 840 589 830L560 801Q550 791 541 799L432 904L295 799Q283 790 276 801L255 830Q248 840 260 849L434 985ZM592 0H61Q48 0 50 12L57 63Q58
75 71 75H148L228 643H151Q140 643 141 655L148 706Q150 718 162 718H693Q705 718 705 710Q705 708 704 706L681 545Q679 532 668 532H614Q600 532 603 545L616 643H315L280 395H533Q546 395 544 383L537 332Q536 320 523 320H269L235 75H536L550 173Q552 185 564
185H619Q630 185 629 173L607 12Q606 0 592 0Z" />
<glyph unicode="&#xcb;" glyph-name="Edieresis" horiz-adv-x="653" d="M379 867T389 856T400 828T386 796T353 782T325 792T315 820T329 852T361 867ZM537 867T547 856T558 828T544 796T511 782T483 792T473 820T487 852T519 867ZM592 0H61Q48 0 50 12L57 63Q58
75 71 75H148L228 643H151Q140 643 141 655L148 706Q150 718 162 718H693Q705 718 705 710Q705 708 704 706L681 545Q679 532 668 532H614Q600 532 603 545L616 643H315L280 395H533Q546 395 544 383L537 332Q536 320 523 320H269L235 75H536L550 173Q552 185 564
185H619Q630 185 629 173L607 12Q606 0 592 0Z" />
<glyph unicode="&#xcc;" glyph-name="Igrave" horiz-adv-x="378" d="M317 0H77Q64 0 66 12L73 63Q74 75 87 75H164L244 643H167Q156 643 157 655L164 706Q166 718 178 718H418Q430 718 430 710Q430 708 429 706L422 655Q420 643 408 643H331L251 75H328Q340 75
339 63L332 12Q330 0 317 0ZM332 779Q327 773 322 773T313 777L164 911Q160 915 160 919T166 930L202 967Q207 973 212 973T222 969L362 827Q367 822 367 818T362 808L332 779Z" />
<glyph unicode="&#xcd;" glyph-name="Iacute" horiz-adv-x="391" d="M301 0H61Q48 0 50 12L57 63Q58 75 71 75H148L228 643H151Q140 643 141 655L148 706Q150 718 162 718H402Q416 718 413 706L406 655Q404 643 392 643H315L235 75H312Q324 75 323 63L316 12Q314
0 301 0ZM279 774Q274 771 269 771T259 777L239 806Q236 809 236 814T244 825L424 966Q429 970 433 970L444 965L469 927Q472 923 472 919T465 908L279 774Z" />
<glyph unicode="&#xce;" glyph-name="Icircumflex" horiz-adv-x="381" d="M309 0H69Q56 0 58 12L65 63Q66 75 79 75H156L236 643H159Q148 643 149 655L156 706Q158 718 170 718H410Q424 718 421 706L414 655Q412 643 400 643H323L243 75H320Q332 75 331 63L324
12Q322 0 309 0ZM446 801Q440 795 436 795T427 799L318 904L181 799Q176 795 171 795T162 801L141 830Q138 834 138 838T146 849L320 985Q325 989 330 989T340 984L475 849Q479 844 479 840T475 830L446 801Z" />
<glyph unicode="&#xcf;" glyph-name="Idieresis" horiz-adv-x="362" d="M301 0H61Q48 0 50 12L57 63Q58 75 71 75H148L228 643H151Q140 643 141 655L148 706Q150 718 162 718H402Q416 718 413 706L406 655Q404 643 392 643H315L235 75H312Q324 75 323 63L316 12Q314
0 301 0ZM241 867T251 856T262 828T248 796T215 782T187 792T177 820T191 852T223 867ZM399 867T409 856T420 828T406 796T373 782T345 792T335 820T349 852T381 867Z" />
<glyph unicode="&#xd0;" glyph-name="Eth" horiz-adv-x="741" d="M348 0H61Q48 0 50 12L58 63Q60 75 72 75H148L183 324H115Q101 324 103 337L109 379Q111 393 124 393H193L228 643H151Q140 643 141 655L148 706Q150 718 162 718H431Q579 718 663 638T748 416Q748
228 638 114T348 0ZM335 75Q491 75 574 161T657 407Q657 519 595 581T411 643H315L280 393H432Q446 393 444 379L438 337Q436 324 423 324H270L235 75H335Z" />
<glyph unicode="&#xd1;" glyph-name="Ntilde" horiz-adv-x="820" d="M670 0H616Q597 0 588 7T570 31L344 483L306 567H304L235 75H312Q324 75 323 63L316 12Q314 0 301 0H61Q48 0 50 12L57 63Q58 75 71 75H148L228 643H151Q140 643 141 655L148 706Q150 718 162
718H302Q332 718 348 684L571 238L614 141H616L686 643H610Q598 643 599 655L606 706Q608 718 620 718H861Q874 718 872 706L865 655Q864 643 851 643H773L685 12Q684 0 670 0ZM667 910H691Q701 910 701 901Q701 852 675 819T598 785Q573 785 553 795T522 816Q494
848 471 848T436 836T420 791Q418 779 406 779H383Q372 779 372 789Q372 834 397 866T473 899Q496 899 515 889T546 866Q574 833 600 833T637 847T653 898Q654 910 667 910Z" />
<glyph unicode="&#xd2;" glyph-name="Ograve" horiz-adv-x="793" d="M396 -7Q263 -7 179 81T94 312Q94 405 129 484T221 615T351 695T498 724Q626 724 713 640T800 414Q800 230 682 112T396 -7ZM407 74Q480 74 546 110T659 224T705 409T640 581T487 645Q380 645
288 564Q244 524 217 460T189 316Q189 203 252 139T407 74ZM562 801Q557 795 552 795T543 799L394 933Q390 937 390 941T396 952L432 989Q437 995 442 995T452 991L592 849Q597 844 597 840T592 830L562 801Z" />
<glyph unicode="&#xd3;" glyph-name="Oacute" horiz-adv-x="793" d="M629 932L443 798Q430 791 423 801L403 830Q395 839 408 849L588 990Q593 994 597 994L608 989L633 951Q641 942 629 932ZM396 -7Q263 -7 179 81T94 312Q94 405 129 484T221 615T351 695T498
724Q626 724 713 640T800 414Q800 230 682 112T396 -7ZM407 74Q480 74 546 110T659 224T705 409T640 581T487 645Q380 645 288 564Q244 524 217 460T189 316Q189 203 252 139T407 74Z" />
<glyph unicode="&#xd4;" glyph-name="Ocircumflex" horiz-adv-x="793" d="M524 985Q529 989 534 989T544 984L679 849Q687 840 679 830L650 801Q640 791 631 799L522 904L385 799Q373 790 366 801L345 830Q338 840 350 849L524 985ZM396 -7Q263 -7 179 81T94 312Q94
405 129 484T221 615T351 695T498 724Q626 724 713 640T800 414Q800 230 682 112T396 -7ZM407 74Q480 74 546 110T659 224T705 409T640 581T487 645Q380 645 288 564Q244 524 217 460T189 316Q189 203 252 139T407 74Z" />
<glyph unicode="&#xd5;" glyph-name="Otilde" horiz-adv-x="793" d="M396 -7Q263 -7 179 81T94 312Q94 405 129 484T221 615T351 695T498 724Q626 724 713 640T800 414Q800 230 682 112T396 -7ZM407 74Q480 74 546 110T659 224T705 409T640 581T487 645Q380 645
288 564Q244 524 217 460T189 316Q189 203 252 139T407 74ZM652 910H676Q686 910 686 901Q686 852 660 819T583 785Q558 785 538 795T508 816Q479 848 456 848T421 836T405 791Q404 779 391 779H368Q357 779 357 789Q357 834 382 866T458 899Q481 899 500 889T530
866Q559 833 584 833T621 847T638 898Q640 910 652 910Z" />
<glyph unicode="&#xd6;" glyph-name="Odieresis" horiz-adv-x="793" d="M454 867T464 856T475 828T461 796T428 782T400 792T390 820T404 852T436 867ZM612 867T622 856T633 828T619 796T586 782T558 792T548 820T562 852T594 867ZM396 -7Q263 -7 179 81T94 312Q94
405 129 484T221 615T351 695T498 724Q626 724 713 640T800 414Q800 230 682 112T396 -7ZM407 74Q480 74 546 110T659 224T705 409T640 581T487 645Q380 645 288 564Q244 524 217 460T189 316Q189 203 252 139T407 74Z" />
<glyph unicode="&#xd7;" glyph-name="multiply" horiz-adv-x="352" d="M286 159T282 159T274 163L210 238L121 160Q116 156 111 156T103 160L72 196Q69 200 69 205T75 216L162 293L95 371Q88 380 97 389L143 429Q148 434 152 434T160 429L227 349L314 426Q320
431 324 431T333 426L364 390Q367 386 367 381T360 371L275 295L339 221Q346 212 336 203L291 163Q286 159 282 159Z" />
<glyph unicode="&#xd8;" glyph-name="Oslash" horiz-adv-x="793" d="M301 -51H241Q228 -51 234 -39L260 21Q183 56 139 133T94 307T129 484T221 615T351 695T498 724Q531 724 565 716L590 771Q594 783 608 783H667Q678 783 674 771L640 693Q713 659 756 586T800
413Q800 230 682 112T396 -7Q365 -7 335 1L318 -39Q312 -51 301 -51ZM243 521T216 457T189 317T218 187T297 107L531 636Q507 644 468 643T379 621T286 560ZM370 81Q393 75 431 75T520 97T612 159T679 263T705 401T677 527T602 606L370 81Z" />
<glyph unicode="&#xd9;" glyph-name="Ugrave" horiz-adv-x="814" d="M603 643Q590 643 592 655L599 706Q600 718 613 718H854Q866 718 865 706L858 655Q856 643 844 643H767L714 269Q695 133 615 63T407 -7T217 64Q170 117 170 209Q170 237 175 269L227 643H150Q138
643 140 655L147 706Q148 718 161 718H402Q415 718 412 706L405 655Q404 643 391 643H314L261 266Q258 242 258 221Q258 74 418 74Q512 74 563 123T626 260L679 643H603ZM603 801Q598 795 593 795T584 799L435 933Q431 937 431 941T437 952L473 989Q478 995 483
995T493 991L633 849Q638 844 638 840T633 830L603 801Z" />
<glyph unicode="&#xda;" glyph-name="Uacute" horiz-adv-x="814" d="M676 932L490 798Q477 791 470 801L450 830Q442 839 455 849L635 990Q640 994 644 994L655 989L680 951Q688 942 676 932ZM603 643Q590 643 592 655L599 706Q600 718 613 718H854Q866 718 865
706L858 655Q856 643 844 643H767L714 269Q695 133 615 63T407 -7T217 64Q170 117 170 209Q170 237 175 269L227 643H150Q138 643 140 655L147 706Q148 718 161 718H402Q415 718 412 706L405 655Q404 643 391 643H314L261 266Q258 242 258 221Q258 74 418 74Q512
74 563 123T626 260L679 643H603Z" />
<glyph unicode="&#xdb;" glyph-name="Ucircumflex" horiz-adv-x="814" d="M536 985Q541 989 546 989T556 984L691 849Q699 840 691 830L662 801Q652 791 643 799L534 904L397 799Q385 790 378 801L357 830Q350 840 362 849L536 985ZM603 643Q590 643 592 655L599
706Q600 718 613 718H854Q866 718 865 706L858 655Q856 643 844 643H767L714 269Q695 133 615 63T407 -7T217 64Q170 117 170 209Q170 237 175 269L227 643H150Q138 643 140 655L147 706Q148 718 161 718H402Q415 718 412 706L405 655Q404 643 391 643H314L261
266Q258 242 258 221Q258 74 418 74Q512 74 563 123T626 260L679 643H603Z" />
<glyph unicode="&#xdc;" glyph-name="Udieresis" horiz-adv-x="814" d="M464 867T474 856T485 828T471 796T438 782T410 792T400 820T414 852T446 867ZM622 867T632 856T643 828T629 796T596 782T568 792T558 820T572 852T604 867ZM603 643Q590 643 592 655L599
706Q600 718 613 718H854Q866 718 865 706L858 655Q856 643 844 643H767L714 269Q695 133 615 63T407 -7T217 64Q170 117 170 209Q170 237 175 269L227 643H150Q138 643 140 655L147 706Q148 718 161 718H402Q415 718 412 706L405 655Q404 643 391 643H314L261
266Q258 242 258 221Q258 74 418 74Q512 74 563 123T626 260L679 643H603Z" />
<glyph unicode="&#xdd;" glyph-name="Yacute" horiz-adv-x="759" d="M500 0H259Q246 0 248 12L255 63Q256 75 270 75H346L376 289Q375 290 346 359Q255 576 218 643H150Q138 643 140 655L147 706Q148 718 161 718H386Q398 718 397 706L390 655Q388 643 376 643H310L428
365H434L628 643H563Q550 643 552 655L559 706Q560 718 573 718H799Q812 718 810 706L803 655Q802 643 788 643H720Q660 570 512 359L463 290L433 75H510Q522 75 521 63L514 12Q512 0 500 0ZM433 798Q428 795 423 795T413 801L393 830Q390 833 390 838T398 849L578
990Q583 994 587 994L598 989L623 951Q626 947 626 943T619 932L433 798Z" />
<glyph unicode="&#xde;" glyph-name="Thorn" horiz-adv-x="626" d="M296 0H51Q38 0 40 12L47 57Q48 69 60 69H130L212 649H144Q132 649 134 661L140 706Q142 718 154 718H293Q307 718 304 706L287 584H430Q527 584 584 536T642 400Q642 284 569 222T359 159H225L212
69H306Q318 69 317 57L311 12Q310 0 296 0ZM377 230Q459 230 506 269T554 390Q554 451 516 480T416 509H275L235 230H377Z" />
<glyph unicode="&#xdf;" glyph-name="germandbls" horiz-adv-x="697" d="M232 0H51Q38 0 40 12L47 57Q48 69 60 69H118L176 482Q192 593 264 658T423 724T548 690T587 604Q587 541 547 510Q527 493 472 458Q432 432 432 380Q432 332 520 302Q556 290 592 275T654
230T680 155Q680 84 614 36T457 -12Q325 -12 282 93Q278 104 276 110L271 132Q268 143 281 149L318 165Q333 170 334 159Q346 122 357 108T380 82Q411 57 463 57T553 83T591 144T566 198T505 230T433 256T372 298T347 366T363 435T401 479T447 508Q502 539 502
584Q502 612 482 630T413 649T318 605T260 482L202 69H242Q254 69 253 57L246 12Q244 0 232 0Z" />
<glyph unicode="&#xe0;" glyph-name="agrave" horiz-adv-x="580" d="M529 0H442Q404 0 404 31Q404 36 405 42L412 93H410Q325 -8 201 -8Q136 -8 96 25T55 114Q55 204 133 247T347 290H431L433 302Q436 318 436 333Q436 427 320 427Q259 427 231 416T190 397T171
386T163 381Q152 377 148 384L125 419Q120 427 129 435T154 455T222 483T333 499Q519 499 519 344Q519 323 515 299L482 67H539Q550 67 549 55L543 12Q542 0 529 0ZM343 230Q251 230 212 217T158 184T143 134T168 83T236 63Q334 63 411 149L422 230H343ZM424 575Q419
569 414 569T405 573L256 707Q252 711 252 715T258 726L294 763Q299 769 304 769T314 765L454 623Q459 618 459 614T454 604L424 575Z" />
<glyph unicode="&#xe1;" glyph-name="aacute" horiz-adv-x="580" d="M529 0H442Q404 0 404 31Q404 36 405 42L412 93H410Q325 -8 201 -8Q136 -8 96 25T55 114Q55 204 133 247T347 290H431L433 302Q436 318 436 333Q436 427 320 427Q259 427 231 416T190 397T171
386T163 381Q152 377 148 384L125 419Q120 427 129 435T154 455T222 483T333 499Q519 499 519 344Q519 323 515 299L482 67H539Q550 67 549 55L543 12Q542 0 529 0ZM343 230Q251 230 212 217T158 184T143 134T168 83T236 63Q334 63 411 149L422 230H343ZM319 572Q314
569 309 569T299 575L279 604Q276 607 276 612T284 623L464 764Q469 768 473 768L484 763L509 725Q512 721 512 717T505 706L319 572Z" />
<glyph unicode="&#xe2;" glyph-name="acircumflex" horiz-adv-x="580" d="M529 0H442Q404 0 404 31Q404 36 405 42L412 93H410Q325 -8 201 -8Q136 -8 96 25T55 114Q55 204 133 247T347 290H431L433 302Q436 318 436 333Q436 427 320 427Q259 427 231 416T190 397T171
386T163 381Q152 377 148 384L125 419Q120 427 129 435T154 455T222 483T333 499Q519 499 519 344Q519 323 515 299L482 67H539Q550 67 549 55L543 12Q542 0 529 0ZM343 230Q251 230 212 217T158 184T143 134T168 83T236 63Q334 63 411 149L422 230H343ZM504 575Q498
569 494 569T485 573L376 678L239 573Q234 569 229 569T220 575L199 604Q196 608 196 612T204 623L378 759Q383 763 388 763T398 758L533 623Q537 618 537 614T533 604L504 575Z" />
<glyph unicode="&#xe3;" glyph-name="atilde" horiz-adv-x="580" d="M529 0H442Q404 0 404 31Q404 36 405 42L412 93H410Q325 -8 201 -8Q136 -8 96 25T55 114Q55 204 133 247T347 290H431L433 302Q436 318 436 333Q436 427 320 427Q259 427 231 416T190 397T171
386T163 381Q152 377 148 384L125 419Q120 427 129 435T154 455T222 483T333 499Q519 499 519 344Q519 323 515 299L482 67H539Q550 67 549 55L543 12Q542 0 529 0ZM343 230Q251 230 212 217T158 184T143 134T168 83T236 63Q334 63 411 149L422 230H343ZM498 684H522Q532
684 532 675Q532 626 506 593T429 559Q404 559 384 569T354 590Q325 622 302 622T267 610T251 565Q250 553 237 553H214Q203 553 203 563Q203 608 228 640T304 673Q327 673 346 663T376 640Q405 607 430 607T467 621T484 672Q486 684 498 684Z" />
<glyph unicode="&#xe4;" glyph-name="adieresis" horiz-adv-x="580" d="M529 0H442Q404 0 404 31Q404 36 405 42L412 93H410Q325 -8 201 -8Q136 -8 96 25T55 114Q55 204 133 247T347 290H431L433 302Q436 318 436 333Q436 427 320 427Q259 427 231 416T190 397T171
386T163 381Q152 377 148 384L125 419Q120 427 129 435T154 455T222 483T333 499Q519 499 519 344Q519 323 515 299L482 67H539Q550 67 549 55L543 12Q542 0 529 0ZM343 230Q251 230 212 217T158 184T143 134T168 83T236 63Q334 63 411 149L422 230H343ZM317 641T327
630T338 602T324 570T291 556T263 566T253 594T267 626T299 641ZM475 641T485 630T496 602T482 570T449 556T421 566T411 594T425 626T457 641Z" />
<glyph unicode="&#xe5;" glyph-name="aring" horiz-adv-x="580" d="M529 0H442Q404 0 404 31Q404 36 405 42L412 93H410Q325 -8 201 -8Q136 -8 96 25T55 114Q55 204 133 247T347 290H431L433 302Q436 318 436 333Q436 427 320 427Q259 427 231 416T190 397T171
386T163 381Q152 377 148 384L125 419Q120 427 129 435T154 455T222 483T333 499Q519 499 519 344Q519 323 515 299L482 67H539Q550 67 549 55L543 12Q542 0 529 0ZM343 230Q251 230 212 217T158 184T143 134T168 83T236 63Q334 63 411 149L422 230H343ZM424 608Q407
574 366 574Q354 574 342 579Q321 594 321 617T332 656Q343 678 368 686Q379 690 390 690T414 685Q435 670 435 647T424 608ZM390 660Q385 662 380 662T365 657T352 642T349 628Q349 611 366 604Q371 602 376 602T391 608Q406 617 406 635T390 660Z" />
<glyph unicode="&#xe6;" glyph-name="ae" horiz-adv-x="890" d="M763 18T721 5T622 -8T513 23T438 111Q401 66 341 29T207 -8T94 25T53 114Q53 204 131 247T345 290H429L431 303Q434 319 434 333Q434 427 318 427Q258 427 229 416T188 397T169 386T161 381Q150
377 146 384L123 419Q118 427 127 435T152 455T220 483T331 499Q473 499 501 404Q537 449 588 473T694 498Q787 498 837 445T887 296Q887 235 866 235H506Q505 222 505 210Q505 145 544 104T644 62T751 88T818 139Q827 150 836 142L859 115Q868 106 861 96T837
71T792 37ZM419 167Q418 176 418 192T421 236H342Q141 236 141 134Q141 103 166 83T226 63T287 70T331 89T367 114Q389 131 412 158L419 167ZM807 308Q807 359 779 395T691 432T583 396T516 290H806Q807 299 807 308Z" />
<glyph unicode="&#xe7;" glyph-name="ccedilla" horiz-adv-x="539" d="M364 -110T337 -133T270 -156T196 -133Q187 -126 196 -117L208 -105Q217 -97 224 -102Q240 -115 267 -115Q315 -115 315 -78Q315 -56 269 -56Q245 -56 252 -39L268 -6Q180 -1 125 56T70 211Q70
342 154 420T345 499T495 425H496L503 480Q505 493 517 493H555Q568 493 566 480L542 310Q540 298 528 298H483Q470 298 472 310L474 327Q475 331 475 336Q475 367 442 398T343 429T216 373T155 221Q155 148 197 106T295 63T401 90T468 141Q477 152 486 144L510
116Q519 107 509 95T480 64T413 22T311 -5L302 -25Q364 -25 364 -73Q364 -110 337 -133Z" />
<glyph unicode="&#xe8;" glyph-name="egrave" horiz-adv-x="538" d="M517 236H157Q156 223 156 210Q156 146 194 105T294 63T401 89T468 140Q477 150 486 143L510 116Q519 107 511 97T487 72T442 38Q374 -7 282 -7T130 52T70 205T111 366T215 466T345 499Q436
499 486 446T537 297Q537 236 517 236ZM458 314Q458 364 429 398T340 433T233 399T167 297H457Q458 306 458 314ZM427 575Q422 569 417 569T408 573L259 707Q255 711 255 715T261 726L297 763Q302 769 307 769T317 765L457 623Q462 618 462 614T457 604L427 575Z"
/>
<glyph unicode="&#xe9;" glyph-name="eacute" horiz-adv-x="538" d="M515 706L329 572Q316 565 309 575L289 604Q281 613 294 623L474 764Q479 768 483 768L494 763L519 725Q527 716 515 706ZM517 236H157Q156 223 156 210Q156 146 194 105T294 63T401 89T468
140Q477 150 486 143L510 116Q519 107 511 97T487 72T442 38Q374 -7 282 -7T130 52T70 205T111 366T215 466T345 499Q436 499 486 446T537 297Q537 236 517 236ZM458 314Q458 364 429 398T340 433T233 399T167 297H457Q458 306 458 314Z" />
<glyph unicode="&#xea;" glyph-name="ecircumflex" horiz-adv-x="538" d="M373 759Q378 763 383 763T393 758L528 623Q536 614 528 604L499 575Q489 565 480 573L371 678L234 573Q222 564 215 575L194 604Q187 614 199 623L373 759ZM517 236H157Q156 223 156 210Q156
146 194 105T294 63T401 89T468 140Q477 150 486 143L510 116Q519 107 511 97T487 72T442 38Q374 -7 282 -7T130 52T70 205T111 366T215 466T345 499Q436 499 486 446T537 297Q537 236 517 236ZM458 314Q458 364 429 398T340 433T233 399T167 297H457Q458 306 458
314Z" />
<glyph unicode="&#xeb;" glyph-name="edieresis" horiz-adv-x="538" d="M299 641T309 630T320 602T306 570T273 556T245 566T235 594T249 626T281 641ZM457 641T467 630T478 602T464 570T431 556T403 566T393 594T407 626T439 641ZM517 236H157Q156 223 156 210Q156
146 194 105T294 63T401 89T468 140Q477 150 486 143L510 116Q519 107 511 97T487 72T442 38Q374 -7 282 -7T130 52T70 205T111 366T215 466T345 499Q436 499 486 446T537 297Q537 236 517 236ZM458 314Q458 364 429 398T340 433T233 399T167 297H457Q458 306 458
314Z" />
<glyph unicode="&#xec;" glyph-name="igrave" horiz-adv-x="293" d="M242 0H51Q38 0 40 12L47 55Q48 67 60 67H116L167 425H111Q98 425 100 437L106 480Q108 492 120 492H246Q258 492 257 480L199 67H252Q264 67 263 55L257 12Q256 0 242 0ZM229 570Q224 564 219
564T210 568L61 702Q57 706 57 710T63 721L99 758Q104 764 109 764T119 760L259 618Q264 614 264 609T259 599L229 570Z" />
<glyph unicode="&#xed;" glyph-name="iacute" horiz-adv-x="293" d="M242 0H51Q38 0 40 12L47 55Q48 67 60 67H116L167 425H111Q98 425 100 437L106 480Q108 492 120 492H246Q258 492 257 480L199 67H252Q264 67 263 55L257 12Q256 0 242 0ZM222 572Q217 569 212
569T202 575L182 604Q179 607 179 612T187 623L367 764Q372 768 376 768L387 763L412 725Q415 721 415 717T408 706L222 572Z" />
<glyph unicode="&#xee;" glyph-name="icircumflex" horiz-adv-x="293" d="M242 0H51Q38 0 40 12L47 55Q48 67 60 67H116L167 425H111Q98 425 100 437L106 480Q108 492 120 492H246Q258 492 257 480L199 67H252Q264 67 263 55L257 12Q256 0 242 0ZM366 575Q360
569 356 569T347 573L238 678L101 573Q96 569 91 569T82 575L61 604Q58 608 58 612T66 623L240 759Q245 763 250 763T260 758L395 623Q399 618 399 614T395 604L366 575Z" />
<glyph unicode="&#xef;" glyph-name="idieresis" horiz-adv-x="293" d="M242 0H51Q38 0 40 12L47 55Q48 67 60 67H116L167 425H111Q98 425 100 437L106 480Q108 492 120 492H246Q258 492 257 480L199 67H252Q264 67 263 55L257 12Q256 0 242 0ZM180 641T190 630T201
602T187 570T154 556T126 566T116 594T130 626T162 641ZM338 641T348 630T359 602T345 570T312 556T284 566T274 594T288 626T320 641Z" />
<glyph unicode="&#xf0;" glyph-name="eth" horiz-adv-x="611" d="M376 645Q309 645 270 611T225 535Q224 523 211 523H151Q140 523 140 533Q140 612 209 668T387 724Q458 724 511 695L566 744Q571 748 575 748T585 744L601 723Q610 714 599 704L553 664Q629 595
629 429Q629 238 540 116T298 -7Q191 -7 130 51T68 201Q68 316 142 389T350 462Q461 462 535 411Q536 428 536 445Q536 556 482 602L427 553Q416 545 408 553L391 574Q383 584 394 593L440 633Q407 645 376 645ZM529 339Q455 394 362 394T214 344T160 213Q160 151
199 113T317 74T452 143T529 339Z" />
<glyph unicode="&#xf1;" glyph-name="ntilde" horiz-adv-x="621" d="M570 0H475Q437 0 437 31Q437 36 438 42L474 305Q476 320 476 333Q476 370 459 394Q436 427 386 427Q352 427 321 407T271 356Q241 311 228 277L199 67H252Q264 67 263 55L257 12Q256 0 242
0H51Q38 0 40 12L47 55Q48 67 60 67H116L167 425H111Q98 425 100 437L106 480Q108 492 120 492H238Q250 492 248 480L230 360H233Q235 374 252 403T287 450T339 484T414 499Q494 499 532 452Q562 415 562 359Q562 343 560 325L524 67H580Q592 67 591 55L585 12Q584
0 570 0ZM526 684H550Q560 684 560 675Q560 626 534 593T457 559Q432 559 412 569T382 590Q353 622 330 622T295 610T279 565Q278 553 265 553H242Q231 553 231 563Q231 608 256 640T332 673Q355 673 374 663T404 640Q433 607 458 607T495 621T512 672Q514 684
526 684Z" />
<glyph unicode="&#xf2;" glyph-name="ograve" horiz-adv-x="575" d="M286 -7Q190 -7 130 52T70 212Q70 341 154 420T358 499Q454 499 514 441T574 283Q574 155 491 74T286 -7ZM154 149T194 106T303 63T431 122T490 274Q490 344 449 386T348 429Q272 429 213 371T154
220Q154 149 194 106ZM407 575Q402 569 397 569T388 573L239 707Q235 711 235 715T241 726L277 763Q282 769 287 769T297 765L437 623Q442 618 442 614T437 604L407 575Z" />
<glyph unicode="&#xf3;" glyph-name="oacute" horiz-adv-x="575" d="M529 706L343 572Q330 565 323 575L303 604Q295 613 308 623L488 764Q493 768 497 768L508 763L533 725Q541 716 529 706ZM286 -7Q190 -7 130 52T70 212Q70 341 154 420T358 499Q454 499 514
441T574 283Q574 155 491 74T286 -7ZM154 149T194 106T303 63T431 122T490 274Q490 344 449 386T348 429Q272 429 213 371T154 220Q154 149 194 106Z" />
<glyph unicode="&#xf4;" glyph-name="ocircumflex" horiz-adv-x="575" d="M390 759Q395 763 400 763T410 758L545 623Q553 614 545 604L516 575Q506 565 497 573L388 678L251 573Q239 564 232 575L211 604Q204 614 216 623L390 759ZM286 -7Q190 -7 130 52T70 212Q70
341 154 420T358 499Q454 499 514 441T574 283Q574 155 491 74T286 -7ZM154 149T194 106T303 63T431 122T490 274Q490 344 449 386T348 429Q272 429 213 371T154 220Q154 149 194 106Z" />
<glyph unicode="&#xf5;" glyph-name="otilde" horiz-adv-x="575" d="M286 -7Q190 -7 130 52T70 212Q70 341 154 420T358 499Q454 499 514 441T574 283Q574 155 491 74T286 -7ZM154 149T194 106T303 63T431 122T490 274Q490 344 449 386T348 429Q272 429 213 371T154
220Q154 149 194 106ZM513 684H537Q547 684 547 675Q547 626 521 593T444 559Q419 559 399 569T368 590Q340 622 317 622T282 610T266 565Q264 553 252 553H229Q218 553 218 563Q218 608 243 640T319 673Q342 673 361 663T392 640Q420 607 446 607T483 621T499
672Q500 684 513 684Z" />
<glyph unicode="&#xf6;" glyph-name="odieresis" horiz-adv-x="575" d="M316 641T326 630T337 602T323 570T290 556T262 566T252 594T266 626T298 641ZM474 641T484 630T495 602T481 570T448 556T420 566T410 594T424 626T456 641ZM286 -7Q190 -7 130 52T70 212Q70
341 154 420T358 499Q454 499 514 441T574 283Q574 155 491 74T286 -7ZM154 149T194 106T303 63T431 122T490 274Q490 344 449 386T348 429Q272 429 213 371T154 220Q154 149 194 106Z" />
<glyph unicode="&#xf7;" glyph-name="divide" horiz-adv-x="414" d="M393 221H82Q69 221 71 234L78 285Q80 298 93 298H404Q418 298 416 285L409 234Q407 221 393 221ZM249 180T259 170T269 142T255 111T224 97T196 107T185 135T199 166T231 180ZM284 428T294
418T304 390T290 359T258 345T230 355T220 383T234 414T266 428Z" />
<glyph unicode="&#xf8;" glyph-name="oslash" horiz-adv-x="575" d="M173 -29H131Q117 -29 124 -17L154 30Q114 56 92 103T70 211Q70 341 154 420T358 499Q405 499 447 482L456 497Q461 510 475 510H517Q530 510 523 497L497 457Q574 399 574 277T491 74T286 -7Q245
-7 206 6L191 -17Q182 -29 173 -29ZM348 429Q272 429 213 371T154 227T201 103L404 416Q376 429 348 429ZM298 63Q375 63 432 122T490 273Q490 343 450 383L249 73Q270 63 298 63Z" />
<glyph unicode="&#xf9;" glyph-name="ugrave" horiz-adv-x="608" d="M202 492Q241 492 241 460Q241 456 240 450L202 187Q200 173 200 160Q200 122 218 98Q241 65 291 65Q322 65 350 81T395 119T426 164Q450 208 450 220L478 425H425Q412 425 414 437L421 480Q422
492 434 492H558Q570 492 569 480L511 67H567Q578 67 577 55L571 12Q570 0 557 0H470Q431 0 431 32Q431 36 432 42L447 133H444Q441 118 425 89T391 42T340 8T267 -7Q187 -7 147 40Q116 78 116 134Q116 150 118 167L153 425H97Q84 425 86 437L93 480Q94 492 106
492H202ZM411 575Q406 569 401 569T392 573L243 707Q239 711 239 715T245 726L281 763Q286 769 291 769T301 765L441 623Q446 618 446 614T441 604L411 575Z" />
<glyph unicode="&#xfa;" glyph-name="uacute" horiz-adv-x="608" d="M495 706L309 572Q296 565 289 575L269 604Q261 613 274 623L454 764Q459 768 463 768L474 763L499 725Q507 716 495 706ZM202 492Q241 492 241 460Q241 456 240 450L202 187Q200 173 200 160Q200
122 218 98Q241 65 291 65Q322 65 350 81T395 119T426 164Q450 208 450 220L478 425H425Q412 425 414 437L421 480Q422 492 434 492H558Q570 492 569 480L511 67H567Q578 67 577 55L571 12Q570 0 557 0H470Q431 0 431 32Q431 36 432 42L447 133H444Q441 118 425
89T391 42T340 8T267 -7Q187 -7 147 40Q116 78 116 134Q116 150 118 167L153 425H97Q84 425 86 437L93 480Q94 492 106 492H202Z" />
<glyph unicode="&#xfb;" glyph-name="ucircumflex" horiz-adv-x="608" d="M382 759Q387 763 392 763T402 758L537 623Q545 614 537 604L508 575Q498 565 489 573L380 678L243 573Q231 564 224 575L203 604Q196 614 208 623L382 759ZM202 492Q241 492 241 460Q241
456 240 450L202 187Q200 173 200 160Q200 122 218 98Q241 65 291 65Q322 65 350 81T395 119T426 164Q450 208 450 220L478 425H425Q412 425 414 437L421 480Q422 492 434 492H558Q570 492 569 480L511 67H567Q578 67 577 55L571 12Q570 0 557 0H470Q431 0 431
32Q431 36 432 42L447 133H444Q441 118 425 89T391 42T340 8T267 -7Q187 -7 147 40Q116 78 116 134Q116 150 118 167L153 425H97Q84 425 86 437L93 480Q94 492 106 492H202Z" />
<glyph unicode="&#xfc;" glyph-name="udieresis" horiz-adv-x="608" d="M313 641T323 630T334 602T320 570T287 556T259 566T249 594T263 626T295 641ZM471 641T481 630T492 602T478 570T445 556T417 566T407 594T421 626T453 641ZM202 492Q241 492 241 460Q241
456 240 450L202 187Q200 173 200 160Q200 122 218 98Q241 65 291 65Q322 65 350 81T395 119T426 164Q450 208 450 220L478 425H425Q412 425 414 437L421 480Q422 492 434 492H558Q570 492 569 480L511 67H567Q578 67 577 55L571 12Q570 0 557 0H470Q431 0 431
32Q431 36 432 42L447 133H444Q441 118 425 89T391 42T340 8T267 -7Q187 -7 147 40Q116 78 116 134Q116 150 118 167L153 425H97Q84 425 86 437L93 480Q94 492 106 492H202Z" />
<glyph unicode="&#xfd;" glyph-name="yacute" horiz-adv-x="590" d="M263 11Q253 11 248 16T240 36L142 425H87Q74 425 76 437L82 480Q84 492 96 492H277Q290 492 287 480L282 437Q280 425 267 425H227L308 86H310L477 425H432Q420 425 422 437L428 480Q430 492
442 492H628Q640 492 638 480L633 437Q632 425 618 425H563L315 -64Q270 -153 229 -193T125 -234T27 -195Q22 -190 22 -186T26 -177L56 -145Q62 -139 73 -143Q98 -163 129 -163T185 -141T238 -63L275 11H263ZM340 572Q335 569 330 569T320 575L300 604Q297 607
297 612T305 623L485 764Q490 768 494 768L505 763L530 725Q533 721 533 717T526 706L340 572Z" />
<glyph unicode="&#xfe;" glyph-name="thorn" horiz-adv-x="613" d="M220 -226H19Q6 -226 8 -213L15 -171Q17 -158 28 -158H85L198 650H144Q132 650 134 662L139 705Q140 717 154 717H278Q290 717 289 705L247 407Q308 499 419 499Q508 499 560 442T612 287Q612
161 538 77T349 -7Q287 -7 250 21T200 91H198Q196 69 195 55L165 -158H230Q242 -158 240 -171L235 -213Q233 -226 220 -226ZM347 63Q422 63 476 123T530 276Q530 346 494 387T399 429Q324 429 271 371T218 216Q218 146 253 105T347 63Z" />
<glyph unicode="&#xff;" glyph-name="ydieresis" horiz-adv-x="590" d="M263 11Q253 11 248 16T240 36L142 425H87Q74 425 76 437L82 480Q84 492 96 492H277Q290 492 287 480L282 437Q280 425 267 425H227L308 86H310L477 425H432Q420 425 422 437L428 480Q430
492 442 492H628Q640 492 638 480L633 437Q632 425 618 425H563L315 -64Q270 -153 229 -193T125 -234T27 -195Q22 -190 22 -186T26 -177L56 -145Q62 -139 73 -143Q98 -163 129 -163T185 -141T238 -63L275 11H263ZM328 641T338 630T349 602T335 570T302 556T274
566T264 594T278 626T310 641ZM486 641T496 630T507 602T493 570T460 556T432 566T422 594T436 626T468 641Z" />
<glyph unicode="&#x2013;" glyph-name="endash" horiz-adv-x="554" d="M533 222H82Q69 222 71 235L78 286Q80 299 93 299H544Q558 299 556 286L549 235Q547 222 533 222Z" />
<glyph unicode="&#x2014;" glyph-name="emdash" horiz-adv-x="879" d="M858 222H82Q69 222 71 235L78 286Q80 299 93 299H869Q883 299 881 286L874 235Q872 222 858 222Z" />
<glyph unicode="&#x2018;" glyph-name="quoteleft" horiz-adv-x="179" d="M229 753Q228 747 216 747T189 732T173 689L174 682Q180 687 195 687T220 676T231 645T215 610T176 594Q130 594 130 653T157 744T226 776Q234 776 232 770L229 753Z" />
<glyph unicode="&#x2019;" glyph-name="quoteright" horiz-adv-x="179" d="M137 584Q138 590 150 590T177 605T193 648L192 655Q186 650 172 650T147 661T136 692T152 727T190 743Q236 743 236 684T209 593T141 561Q134 561 134 567L137 584Z" />
<glyph unicode="&#x201a;" glyph-name="quotesinglbase" horiz-adv-x="179" d="M45 -73Q46 -67 58 -67T85 -52T101 -9L100 -2Q94 -7 80 -7T55 4T44 35T60 70T98 86Q144 86 144 27T117 -63T48 -95Q42 -95 42 -90L45 -73Z" />
<glyph unicode="&#x201c;" glyph-name="quotedblleft" horiz-adv-x="341" d="M392 753Q390 747 379 747T352 732T336 689L337 682Q343 687 357 687T382 676T393 645T377 610T339 594Q293 594 293 653T320 744T388 776Q396 776 394 770L392 753ZM229 753Q228 747
216 747T189 732T173 689L174 682Q180 687 195 687T220 676T231 645T215 610T176 594Q130 594 130 653T157 744T226 776Q234 776 232 770L229 753Z" />
<glyph unicode="&#x201d;" glyph-name="quotedblright" horiz-adv-x="341" d="M137 584Q138 590 150 590T177 605T193 648L192 655Q186 650 172 650T147 661T136 692T152 727T190 743Q236 743 236 684T209 593T141 561Q134 561 134 567L137 584ZM307 590Q325 590
340 605T356 648L355 655Q349 650 335 650T309 661T298 692T314 727T353 743Q399 743 399 684T372 593T303 561Q297 561 297 567L300 584Q302 590 307 590Z" />
<glyph unicode="&#x201e;" glyph-name="quotedblbase" horiz-adv-x="330" d="M45 -73Q46 -67 58 -67T85 -52T101 -9L100 -2Q94 -7 80 -7T55 4T44 35T60 70T98 86Q144 86 144 27T117 -63T48 -95Q42 -95 42 -90L45 -73ZM195 -73Q196 -67 208 -67T236 -52T252 -9L251
-2Q245 -7 230 -7T205 4T194 35T210 70T248 86Q295 86 295 27T268 -63T199 -95Q196 -95 194 -94T193 -90L195 -73Z" />
<glyph unicode="&#x2022;" glyph-name="bullet" horiz-adv-x="263" d="M274 300T244 270T170 239T105 260T84 325T113 400T186 432T252 409T274 343Z" />
</font>
</defs>
</svg>
